[ShouryuuReppa] BLEACH: Sennen Kessen-hen 11 1080p [Multi-Subs][HEVC][x265][10bit][AAC]

Category:
Date:
2022-12-20 00:23 UTC
Submitter:
Seeders:
2
Information:
No information.
Leechers:
0
File size:
1.0 GiB
Completed:
1145
Info hash:
3aa6e340150316c98f8d0da68d0bd2c3326f06f2
Source: rip_time Encoding Settings ffmpeg -hide_banner -v verbose -i "[Rip Time] Bleach: Thousand Year Blood War - 11 [DSNP][1080p][Multiple Subtitle].mkv" -map 0 -c:v libx265 -preset slow -crf 19 -x265-params ref=4:min-keyint=24:keyint=240:bframes=8:rc-lookahead=40:lookahead-slices=0:constrained-intra=1:rdoq-level=1:deblock=1,1:psy-rd=1.50:psy-rdoq=2.00:aq-mode=3:range=limited:colorprim=bt709:transfer=bt709:colormatrix=bt709:limit-sao=1 -pix_fmt yuv420p10le -acodec copy -scodec copy "[ShouryuuReppa] BLEACH: Sennen Kessen-hen 11 1080p [Multi-Subs][HEVC][x265][10bit][AAC].mkv" frame=35351 fps=1.5 q=27.0 Lsize= 1091582kB time=00:24:34.43 bitrate=6064.9kbits/s speed=0.064x video:1068185kB audio:22566kB subtitle:37kB other streams:0kB global headers:2kB muxing overhead: 0.072727% x265 [info]: frame I: 374, Avg QP:15.28 kb/s: 31040.31 x265 [info]: frame P: 7548, Avg QP:16.78 kb/s: 14777.48 x265 [info]: frame B: 27429, Avg QP:22.20 kb/s: 3158.24 x265 [info]: Weighted P-Frames: Y:4.5% UV:2.8% x265 [info]: consecutive B-frames: 14.9% 7.2% 8.1% 32.0% 4.8% 10.2% 5.2% 15.5% 2.1% encoded 35351 frames in 23034.80s (1.53 fps), 5934.11 kb/s, Avg QP:20.97 MediaInfo General Unique ID : 5035144776515618039222562417662944226 (0x3C9BBCDDC735DD73EEA647D06A2E3E2) Complete name : /home/mrclay/Downloads/HEVC/[ShouryuuReppa] BLEACH: Sennen Kessen-hen 1080p [Multi-Subs][HEVC][x265][10bit][AAC]/[ShouryuuReppa] BLEACH: Sennen Kessen-hen 11 1080p [Multi-Subs][HEVC][x265][10bit][AAC].mkv Format : Matroska Format version : Version 4 File size : 1.04 GiB Duration : 24 min 34 s Overall bit rate : 6 063 kb/s Movie name : BLEACH: Sennen Kessen-hen 11 Encoded date : UTC 2022-12-20 00:17:02 Writing application : mkvmerge v45.0.0 ('Heaven in Pennies') 64-bit Writing library : libebml v1.3.10 + libmatroska v1.5.2 / Lavf58.76.100 Video ID : 1 Format : HEVC Format/Info : High Efficiency Video Coding Format profile : Main 10@L4@Main Codec ID : V_MPEGH/ISO/HEVC Duration : 24 min 34 s Bit rate : 5 935 kb/s Width : 1 920 pixels Height : 1 080 pixels Display aspect ratio : 16:9 Frame rate mode : Constant Frame rate : 23.976 (24000/1001) FPS Color space : YUV Chroma subsampling : 4:2:0 Bit depth : 10 bits Bits/(Pixel*Frame) : 0.119 Stream size : 1.02 GiB (98%) Writing library : x265 3.5+1-f0c1022b6:[Linux][GCC 9.3.0][64 bit] 10bit Encoding settings : cpuid=1111039 / frame-threads=2 / wpp / no-pmode / no-pme / no-psnr / no-ssim / log-level=2 / input-csp=1 / input-res=1920x1080 / interlace=0 / total-frames=0 / level-idc=0 / high-tier=1 / uhd-bd=0 / ref=4 / no-allow-non-conformance / no-repeat-headers / annexb / no-aud / no-hrd / info / hash=0 / no-temporal-layers / open-gop / min-keyint=24 / keyint=240 / gop-lookahead=0 / bframes=8 / b-adapt=2 / b-pyramid / bframe-bias=0 / rc-lookahead=40 / lookahead-slices=0 / scenecut=40 / hist-scenecut=0 / radl=0 / no-splice / no-intra-refresh / ctu=64 / min-cu-size=8 / rect / no-amp / max-tu-size=32 / tu-inter-depth=1 / tu-intra-depth=1 / limit-tu=0 / rdoq-level=1 / dynamic-rd=0.00 / no-ssim-rd / signhide / no-tskip / nr-intra=0 / nr-inter=0 / constrained-intra / strong-intra-smoothing / max-merge=3 / limit-refs=3 / limit-modes / me=3 / subme=3 / merange=57 / temporal-mvp / no-frame-dup / no-hme / weightp / no-weightb / no-analyze-src-pics / deblock=1:1 / sao / no-sao-non-deblock / rd=4 / selective-sao=4 / no-early-skip / rskip / no-fast-intra / no-tskip-fast / no-cu-lossless / no-b-intra / no-splitrd-skip / rdpenalty=0 / psy-rd=1.50 / psy-rdoq=2.00 / no-rd-refine / no-lossless / cbqpoffs=0 / crqpoffs=0 / rc=crf / crf=19.0 / qcomp=0.60 / qpstep=4 / stats-write=0 / stats-read=0 / ipratio=1.40 / pbratio=1.30 / aq-mode=3 / aq-strength=1.00 / cutree / zone-count=0 / no-strict-cbr / qg-size=32 / no-rc-grain / qpmax=69 / qpmin=0 / no-const-vbv / sar=1 / overscan=0 / videoformat=5 / range=0 / colorprim=1 / transfer=1 / colormatrix=1 / chromaloc=0 / display-window=0 / cll=0,0 / min-luma=0 / max-luma=1023 / log2-max-poc-lsb=8 / vui-timing-info / vui-hrd-info / slices=1 / no-opt-qp-pps / no-opt-ref-list-length-pps / no-multi-pass-opt-rps / scenecut-bias=0.05 / hist-threshold=0.03 / no-opt-cu-delta-qp / no-aq-motion / no-hdr10 / no-hdr10-opt / no-dhdr10-opt / no-idr-recovery-sei / analysis-reuse-level=0 / analysis-save-reuse-level=0 / analysis-load-reuse-level=0 / scale-factor=0 / refine-intra=0 / refine-inter=0 / refine-mv=1 / refine-ctu-distortion=0 / limit-sao / ctu-info=0 / no-lowpass-dct / refine-analysis-type=0 / copy-pic=1 / max-ausize-factor=1.0 / no-dynamic-refine / no-single-sei / no-hevc-aq / no-svt / no-field / qp-adaptation-range=1.00 / scenecut-aware-qp=0conformance-window-offsets / right=0 / bottom=0 / decoder-max-rate=0 / no-vbv-live-multi-pass Default : Yes Forced : No Color range : Limited Color primaries : BT.709 Transfer characteristics : BT.709 Matrix coefficients : BT.709 Audio ID : 2 Format : AAC LC Format/Info : Advanced Audio Codec Low Complexity Codec ID : A_AAC-2 Duration : 24 min 34 s Bit rate : 125 kb/s Channel(s) : 2 channels Channel layout : L R Sampling rate : 48.0 kHz Frame rate : 46.875 FPS (1024 SPF) Compression mode : Lossy Stream size : 22.0 MiB (2%) Title : ShouryuuReppa Language : Japanese Default : Yes Forced : No Text #1 ID : 3 Format : UTF-8 Codec ID : S_TEXT/UTF8 Codec ID/Info : UTF-8 Plain Text Duration : 24 min 3 s Bit rate : 69 b/s Count of elements : 379 Stream size : 12.2 KiB (0%) Title : rip_time Language : English Default : Yes Forced : No Text #2 ID : 4 Format : UTF-8 Codec ID : S_TEXT/UTF8 Codec ID/Info : UTF-8 Plain Text Duration : 24 min 11 s Bit rate : 70 b/s Count of elements : 356 Stream size : 12.4 KiB (0%) Title : rip_time Language : Spanish Default : No Forced : No Text #3 ID : 5 Format : UTF-8 Codec ID : S_TEXT/UTF8 Codec ID/Info : UTF-8 Plain Text Duration : 24 min 11 s Bit rate : 70 b/s Count of elements : 366 Stream size : 12.5 KiB (0%) Title : rip_time Language : Portuguese Default : No Forced : No

File list

  • [ShouryuuReppa] BLEACH: Sennen Kessen-hen 11 1080p [Multi-Subs][HEVC][x265][10bit][AAC].mkv (1.0 GiB)