Eden.of.the.East.S01.1080p.BluRay.10-Bit.Dual-Audio.FLAC5.1.x265-YURASUKA (Higashi no Eden)

Category:
Date:
2022-12-10 06:00 UTC
Submitter:
Seeders:
9
Information:
Leechers:
0
File size:
9.7 GiB
Completed:
579
Info hash:
0925041504f389d11f1e901554a19a2593cb5935
Eden of the East / Higashi no Eden Season 1 (2009) Video Source: Butcher HK BDRemux (JP) Audio + Subtitles: [CTR](https://nyaa.si/view/1102569) (Coalgirls) [Encode Comparison](https://slow.pics/c/7WQ0wzAE) ``` Complete name : Eden.of.the.East.S01E11.1080p.BluRay.10-Bit.Dual-Audio.FLAC5.1.x265-YURASUKA.mkv Format : Matroska Format version : Version 4 File size : 1.13 GiB Duration : 22 min 32 s Overall bit rate mode : Variable Overall bit rate : 7 152 kb/s Movie name : Eden of the East - S01E11 - YURASUKA Encoded date : UTC 2022-12-10 02:25:37 Writing application : mkvmerge v72.0.0 ('Minuano (Six-eight)') 64-bit Writing library : libebml v1.4.4 + libmatroska v1.7.1 Attachments : CALIBRII.TTF / CALIBRIZ.TTF / FILOBOLD.TTF / georgia.ttf / Marker_SD_1.2.ttf / VAGRoundedStd-Light.otf / AbsaraSans-Medium.otf / C017000D.TTF / CALIBRI.TTF / CALIBRIB.TTF Video ID : 1 Format : HEVC Format/Info : High Efficiency Video Coding Format profile : Main 10@L5@Main Codec ID : V_MPEGH/ISO/HEVC Duration : 22 min 32 s Bit rate : 4 047 kb/s Width : 1 920 pixels Height : 1 080 pixels Display aspect ratio : 16:9 Frame rate mode : Constant Frame rate : 23.976 (24000/1001) FPS Color space : YUV Chroma subsampling : 4:2:0 Bit depth : 10 bits Bits/(Pixel*Frame) : 0.081 Stream size : 653 MiB (57%) Title : YURASUKA 1080p x265 Writing library : x265 3.5:[Linux][GCC 11.2.0][64 bit] 10bit Encoding settings : cpuid=1111039 / frame-threads=4 / numa-pools=24 / wpp / no-pmode / no-pme / no-psnr / no-ssim / log-level=2 / input-csp=1 / input-res=1920x1080 / interlace=0 / total-frames=0 / level-idc=0 / high-tier=1 / uhd-bd=0 / ref=6 / no-allow-non-conformance / no-repeat-headers / annexb / no-aud / no-hrd / info / hash=0 / no-temporal-layers / open-gop / min-keyint=1 / keyint=360 / gop-lookahead=0 / bframes=16 / b-adapt=2 / b-pyramid / bframe-bias=0 / rc-lookahead=72 / lookahead-slices=4 / scenecut=40 / hist-scenecut=0 / radl=0 / no-splice / no-intra-refresh / ctu=32 / min-cu-size=8 / rect / amp / max-tu-size=32 / tu-inter-depth=4 / tu-intra-depth=4 / limit-tu=0 / rdoq-level=2 / dynamic-rd=4.00 / no-ssim-rd / signhide / tskip / nr-intra=0 / nr-inter=0 / no-constrained-intra / strong-intra-smoothing / max-merge=3 / limit-refs=3 / limit-modes / me=3 / subme=4 / merange=57 / temporal-mvp / no-frame-dup / no-hme / weightp / weightb / no-analyze-src-pics / deblock=0:0 / no-sao / no-sao-non-deblock / rd=4 / selective-sao=0 / no-early-skip / rskip / no-fast-intra / no-tskip-fast / no-cu-lossless / b-intra / no-splitrd-skip / rdpenalty=0 / psy-rd=2.00 / psy-rdoq=2.00 / no-rd-refine / no-lossless / cbqpoffs=0 / crqpoffs=0 / rc=crf / crf=16.0 / qcomp=0.72 / qpstep=4 / stats-write=0 / stats-read=0 / vbv-maxrate=20000 / vbv-bufsize=20000 / vbv-init=0.9 / min-vbv-fullness=50.0 / max-vbv-fullness=80.0 / crf-max=0.0 / crf-min=0.0 / ipratio=1.40 / pbratio=1.30 / aq-mode=3 / aq-strength=0.85 / cutree / zone-count=0 / no-strict-cbr / qg-size=32 / no-rc-grain / qpmax=69 / qpmin=0 / no-const-vbv / sar=0 / overscan=0 / videoformat=5 / range=0 / colorprim=1 / transfer=1 / colormatrix=1 / chromaloc=0 / display-window=0 / cll=0,0 / min-luma=0 / max-luma=1023 / log2-max-poc-lsb=8 / vui-timing-info / vui-hrd-info / slices=1 / no-opt-qp-pps / no-opt-ref-list-length-pps / no-multi-pass-opt-rps / scenecut-bias=0.05 / hist-threshold=0.03 / no-opt-cu-delta-qp / no-aq-motion / no-hdr10 / no-hdr10-opt / no-dhdr10-opt / no-idr-recovery-sei / analysis-reuse-level=0 / analysis-save-reuse-level=0 / analysis-load-reuse-level=0 / scale-factor=0 / refine-intra=0 / refine-inter=0 / refine-mv=1 / refine-ctu-distortion=0 / no-limit-sao / ctu-info=0 / no-lowpass-dct / refine-analysis-type=0 / copy-pic=1 / max-ausize-factor=1.0 / no-dynamic-refine / no-single-sei / no-hevc-aq / no-svt / no-field / qp-adaptation-range=1.00 / scenecut-aware-qp=0conformance-window-offsets / right=0 / bottom=0 / decoder-max-rate=0 / no-vbv-live-multi-pass Language : Japanese Default : Yes Forced : No Color range : Limited Color primaries : BT.709 Transfer characteristics : BT.709 Matrix coefficients : BT.709 Audio #1 ID : 2 Format : FLAC Format/Info : Free Lossless Audio Codec Codec ID : A_FLAC Duration : 22 min 32 s Bit rate mode : Variable Bit rate : 1 509 kb/s Channel(s) : 6 channels Channel layout : L R C LFE Ls Rs Sampling rate : 48.0 kHz Frame rate : 11.719 FPS (4096 SPF) Bit depth : 16 bits Compression mode : Lossless Delay relative to video : 167 ms Stream size : 243 MiB (21%) Title : English FLAC 5.1 Writing library : libFLAC 1.3.1 (UTC 2014-11-25) Language : English Default : Yes Forced : No Audio #2 ID : 3 Format : FLAC Format/Info : Free Lossless Audio Codec Codec ID : A_FLAC Duration : 22 min 32 s Bit rate mode : Variable Bit rate : 1 584 kb/s Channel(s) : 6 channels Channel layout : L R C LFE Ls Rs Sampling rate : 48.0 kHz Frame rate : 11.719 FPS (4096 SPF) Bit depth : 16 bits Compression mode : Lossless Delay relative to video : 167 ms Stream size : 255 MiB (22%) Title : Japanese FLAC 5.1 Writing library : libFLAC 1.2.1 (UTC 2007-09-17) Language : Japanese Default : No Forced : No Text #1 ID : 4 Format : ASS Codec ID : S_TEXT/ASS Codec ID/Info : Advanced Sub Station Alpha Duration : 20 min 20 s Bit rate : 26 b/s Frame rate : 0.036 FPS Count of elements : 44 Compression mode : Lossless Stream size : 3.98 KiB (0%) Title : Signs [Coalgirls] Language : English Default : Yes Forced : Yes Text #2 ID : 5 Format : ASS Codec ID : S_TEXT/ASS Codec ID/Info : Advanced Sub Station Alpha Duration : 21 min 1 s Bit rate : 134 b/s Frame rate : 0.211 FPS Count of elements : 266 Compression mode : Lossless Stream size : 20.7 KiB (0%) Title : Subtitles [Coalgirls] Language : Japanese Default : No Forced : No Menu 00:00:00.167 : en:OPENING 00:01:20.247 : en:PART A 00:07:00.587 : en:PART B 00:21:11.437 : en:ENDING ``` Dead end for a sucker that’s a sucker like me. 私のようなカモの行き止まりです。

File list

  • Eden.of.the.East.S01.1080p.BluRay.10-Bit.Dual-Audio.FLAC5.1.x265-YURASUKA
    • Eden.of.the.East.S01E01.1080p.BluRay.10-Bit.Dual-Audio.FLAC5.1.x265-YURASUKA.mkv (991.4 MiB)
    • Eden.of.the.East.S01E02.1080p.BluRay.10-Bit.Dual-Audio.FLAC5.1.x265-YURASUKA.mkv (926.9 MiB)
    • Eden.of.the.East.S01E03.1080p.BluRay.10-Bit.Dual-Audio.FLAC5.1.x265-YURASUKA.mkv (807.5 MiB)
    • Eden.of.the.East.S01E04.1080p.BluRay.10-Bit.Dual-Audio.FLAC5.1.x265-YURASUKA.mkv (989.3 MiB)
    • Eden.of.the.East.S01E05.1080p.BluRay.10-Bit.Dual-Audio.FLAC5.1.x265-YURASUKA.mkv (895.8 MiB)
    • Eden.of.the.East.S01E06.1080p.BluRay.10-Bit.Dual-Audio.FLAC5.1.x265-YURASUKA.mkv (795.8 MiB)
    • Eden.of.the.East.S01E07.1080p.BluRay.10-Bit.Dual-Audio.FLAC5.1.x265-YURASUKA.mkv (896.7 MiB)
    • Eden.of.the.East.S01E08.1080p.BluRay.10-Bit.Dual-Audio.FLAC5.1.x265-YURASUKA.mkv (778.0 MiB)
    • Eden.of.the.East.S01E09.1080p.BluRay.10-Bit.Dual-Audio.FLAC5.1.x265-YURASUKA.mkv (843.0 MiB)
    • Eden.of.the.East.S01E10.1080p.BluRay.10-Bit.Dual-Audio.FLAC5.1.x265-YURASUKA.mkv (838.0 MiB)
    • Eden.of.the.East.S01E11.1080p.BluRay.10-Bit.Dual-Audio.FLAC5.1.x265-YURASUKA.mkv (1.1 GiB)

nx6

User
Thank you! I assume you'll be doing the movies, too?