Jujutsu Kaisen (2020) Season 1 S01 (1080p BluRay AV1 10bit Dual Audio Opus 2.0 KaNNa)

Category:
Date:
2022-12-08 22:45 UTC
Submitter:
Seeders:
101
Information:
No information.
Leechers:
11
File size:
4.0 GiB
Completed:
16663
Info hash:
fbca905357c3d52879a7ff74c6c98af010da5701
# Jujutsu Kaisen (2020) S01 (1080p BluRay AV1 10bit Dual Opus 2.0 Japanese + English KaNNa) Extras include: NCOP 1 & 2, NCED 1 & 2 **Source**: `Jujutsu Kaisen S01 1080p Dual Audio BD Remux FLAC-TTGA` - Thanks! **AV1 Settings**: ``` --end-usage=q --cpu-used=3 --cq-level=38 --disable-kf --kf-min-dist=12 --kf-max-dist=240 --enable-dnl-denoising=0 --threads=1 --tile-rows=0 --tile-columns=1 --enable-keyframe-filtering=1 --aq-mode=1 --tune-content=psy --tune=omni --enable-qm=1 --lag-in-frames=64 --arnr-strength=1 --arnr-maxframes=4 --sharpness=3 --quant-sharpness=1 --disable-trellis-quant=0 --enable-fwd-kf=1 --min-q=1 --deltaq-mode=1 --enable-chroma-deltaq=1 ``` with `photon-noise=4` **Screenshots**: https://imgbox.com/xQmyWgWv https://imgbox.com/JJgz8NBi https://imgbox.com/CLDDaySP https://imgbox.com/qUNJK6IL **MediaInfo**: ``` General Unique ID : 89608914946099877078694551689590922152 (0x436A0C9C29FF0D9F8772984CADCEDBA8) Complete name : D:\Movies\AV1\Jujutsu Kaisen\Jujutsu Kaisen (2020) S01 (1080p BluRay AV1 10bit Opus 2.0 KaNNa)\Jujutsu Kaisen (2020) - S01E01 (1080p BluRay AV1 10bit Opus 2.0 KaNNa).mkv Format : Matroska Format version : Version 4 File size : 164 MiB Duration : 23 min 56 s Overall bit rate : 959 kb/s Encoded date : UTC 2022-12-08 18:13:48 Writing application : mkvmerge v60.0.0 ('Are We Copies?') 64-bit Writing library : libebml v1.4.2 + libmatroska v1.6.4 Attachments : Baqa.otf / Barthowheel-Regular.ttf / BIP.ttf / Boopee.ttf / Brush-Strokes.ttf / Cabin-Bold.ttf / Cabin-Bold-Italic.ttf / Cocon-Next.OTF / D3-Streetism.ttf / FolkPro-En-Bold.OTF / Janda-Manatee-Solid.ttf / KG-HAPPY-Solid.ttf / Ragnar.ttf / arial.ttf / AT-Amigo.ttf / AveriaSans-Light.ttf Video ID : 1 Format : AV1 Format/Info : AOMedia Video 1 Format profile : Main@L4.0 Codec ID : V_AV1 Duration : 23 min 56 s Bit rate : 800 kb/s Width : 1 920 pixels Height : 1 080 pixels Display aspect ratio : 16:9 Frame rate mode : Constant Frame rate : 23.976 (24000/1001) FPS Color space : YUV Chroma subsampling : 4:2:0 Bit depth : 10 bits Bits/(Pixel*Frame) : 0.016 Stream size : 137 MiB (83%) Title : Jujutsu Kaisen (2020) - S01E01 (1080p AV1) [KaNNa] Default : Yes Forced : No Color range : Limited Audio #1 ID : 2 Format : Opus Codec ID : A_OPUS Duration : 23 min 56 s Bit rate : 60.5 kb/s Channel(s) : 2 channels Channel layout : L R Sampling rate : 48.0 kHz Frame rate : 50.000 FPS (960 SPF) Bit depth : 32 bits Compression mode : Lossy Stream size : 10.4 MiB (6%) Title : Stereo (64k Opus) [KaNNa] Language : Japanese Default : Yes Forced : No Audio #2 ID : 3 Format : Opus Codec ID : A_OPUS Duration : 23 min 55 s Bit rate : 60.5 kb/s Channel(s) : 2 channels Channel layout : L R Sampling rate : 48.0 kHz Frame rate : 50.000 FPS (960 SPF) Bit depth : 32 bits Compression mode : Lossy Delay relative to video : 1 s 1 ms Stream size : 10.4 MiB (6%) Title : Stereo (64k Opus) [KaNNa] Language : English Default : No Forced : No Text #1 ID : 4 Format : ASS Muxing mode : zlib Codec ID : S_TEXT/ASS Codec ID/Info : Advanced Sub Station Alpha Duration : 23 min 53 s Bit rate : 1 351 b/s Frame rate : 0.714 FPS Count of elements : 1023 Compression mode : Lossless Stream size : 236 KiB (0%) Title : Dialogue Language : English Default : Yes Forced : No Text #2 ID : 5 Format : ASS Muxing mode : zlib Codec ID : S_TEXT/ASS Codec ID/Info : Advanced Sub Station Alpha Duration : 22 min 50 s Bit rate : 1 265 b/s Frame rate : 0.460 FPS Count of elements : 630 Compression mode : Lossless Stream size : 212 KiB (0%) Title : Signs & Songs Language : English Default : No Forced : No Text #3 ID : 6 Format : ASS Muxing mode : zlib Codec ID : S_TEXT/ASS Codec ID/Info : Advanced Sub Station Alpha Duration : 23 min 53 s Bit rate : 1 351 b/s Frame rate : 0.714 FPS Count of elements : 1023 Compression mode : Lossless Stream size : 237 KiB (0%) Title : Honorific Language : English Default : No Forced : No Menu 00:00:00.000 : :Intro 00:00:55.950 : :Opening 00:02:26.000 : :Part A 00:11:44.140 : :Part B 00:23:45.990 : :Preview ```

File list

  • Jujutsu Kaisen (2020) S01 (1080p BluRay AV1 10bit Opus 2.0 KaNNa)
    • Featurettes
      • Jujutsu Kaisen (2020) - S01 - NCED1.mkv (11.0 MiB)
      • Jujutsu Kaisen (2020) - S01 - NCED2.mkv (6.2 MiB)
      • Jujutsu Kaisen (2020) - S01 - NCOP1.mkv (16.7 MiB)
      • Jujutsu Kaisen (2020) - S01 - NCOP2.mkv (17.7 MiB)
    • Jujutsu Kaisen (2020) - S01E01 (1080p BluRay AV1 10bit Opus 2.0 KaNNa).mkv (164.2 MiB)
    • Jujutsu Kaisen (2020) - S01E02 (1080p BluRay AV1 10bit Opus 2.0 KaNNa).mkv (128.0 MiB)
    • Jujutsu Kaisen (2020) - S01E03 (1080p BluRay AV1 10bit Opus 2.0 KaNNa).mkv (148.4 MiB)
    • Jujutsu Kaisen (2020) - S01E04 (1080p BluRay AV1 10bit Opus 2.0 KaNNa).mkv (148.3 MiB)
    • Jujutsu Kaisen (2020) - S01E05 (1080p BluRay AV1 10bit Opus 2.0 KaNNa).mkv (124.2 MiB)
    • Jujutsu Kaisen (2020) - S01E06 (1080p BluRay AV1 10bit Opus 2.0 KaNNa).mkv (144.1 MiB)
    • Jujutsu Kaisen (2020) - S01E07 (1080p BluRay AV1 10bit Opus 2.0 KaNNa).mkv (197.9 MiB)
    • Jujutsu Kaisen (2020) - S01E08 (1080p BluRay AV1 10bit Opus 2.0 KaNNa).mkv (145.1 MiB)
    • Jujutsu Kaisen (2020) - S01E09 (1080p BluRay AV1 10bit Opus 2.0 KaNNa).mkv (147.1 MiB)
    • Jujutsu Kaisen (2020) - S01E10 (1080p BluRay AV1 10bit Opus 2.0 KaNNa).mkv (157.7 MiB)
    • Jujutsu Kaisen (2020) - S01E11 (1080p BluRay AV1 10bit Opus 2.0 KaNNa).mkv (133.4 MiB)
    • Jujutsu Kaisen (2020) - S01E12 (1080p BluRay AV1 10bit Opus 2.0 KaNNa).mkv (151.7 MiB)
    • Jujutsu Kaisen (2020) - S01E13 (1080p BluRay AV1 10bit Opus 2.0 KaNNa).mkv (134.4 MiB)
    • Jujutsu Kaisen (2020) - S01E14 (1080p BluRay AV1 10bit Opus 2.0 KaNNa).mkv (160.5 MiB)
    • Jujutsu Kaisen (2020) - S01E15 (1080p BluRay AV1 10bit Opus 2.0 KaNNa).mkv (239.3 MiB)
    • Jujutsu Kaisen (2020) - S01E16 (1080p BluRay AV1 10bit Opus 2.0 KaNNa).mkv (208.6 MiB)
    • Jujutsu Kaisen (2020) - S01E17 (1080p BluRay AV1 10bit Opus 2.0 KaNNa).mkv (238.8 MiB)
    • Jujutsu Kaisen (2020) - S01E18 (1080p BluRay AV1 10bit Opus 2.0 KaNNa).mkv (194.7 MiB)
    • Jujutsu Kaisen (2020) - S01E19 (1080p BluRay AV1 10bit Opus 2.0 KaNNa).mkv (178.7 MiB)
    • Jujutsu Kaisen (2020) - S01E20 (1080p BluRay AV1 10bit Opus 2.0 KaNNa).mkv (236.1 MiB)
    • Jujutsu Kaisen (2020) - S01E21 (1080p BluRay AV1 10bit Opus 2.0 KaNNa).mkv (158.6 MiB)
    • Jujutsu Kaisen (2020) - S01E22 (1080p BluRay AV1 10bit Opus 2.0 KaNNa).mkv (153.8 MiB)
    • Jujutsu Kaisen (2020) - S01E23 (1080p BluRay AV1 10bit Opus 2.0 KaNNa).mkv (184.0 MiB)
    • Jujutsu Kaisen (2020) - S01E24 (1080p BluRay AV1 10bit Opus 2.0 KaNNa).mkv (165.0 MiB)