[ShouryuuReppa] BLEACH: Sennen Kessen-hen 09 1080p [Multi-Subs][HEVC][x265][10bit][AAC]

Category:
Date:
2022-12-05 23:36 UTC
Submitter:
Seeders:
7
Information:
No information.
Leechers:
1
File size:
1001.0 MiB
Completed:
1287
Info hash:
0b4876c92e1debc52cb017cd213e1cfa965036ac
Source: NanDesuKa (DSNP) Encoding Settings ffmpeg -hide_banner -v verbose -i "Bleach - S17E09 - 1080p WEB H.264 -NanDesuKa (DSNP).mkv" -map 0 -c:v libx265 -preset slow -crf 19 -x265-params ref=4:min-keyint=24:keyint=240:bframes=8:rc-lookahead=40:lookahead-slices=0:constrained-intra=1:rdoq-level=1:deblock=1,1:psy-rd=1.50:psy-rdoq=2.00:aq-mode=3:range=limited:colorprim=bt709:transfer=bt709:colormatrix=bt709:limit-sao=1 -pix_fmt yuv420p10le -acodec copy -scodec copy "[ShouryuuReppa] BLEACH: Sennen Kessen-hen 09 1080p [Multi-Subs][HEVC][x265][10bit][AAC].mkv" frame=35336 fps=1.8 q=27.0 Lsize= 1025337kB time=00:24:33.81 bitrate=5699.2kbits/s speed=0.0746x video:1001953kB audio:22556kB subtitle:39kB other streams:0kB global headers:2kB muxing overhead: 0.077008% x265 [info]: frame I: 345, Avg QP:15.22 kb/s: 28399.54 x265 [info]: frame P: 7828, Avg QP:16.64 kb/s: 14647.39 x265 [info]: frame B: 27163, Avg QP:22.67 kb/s: 2662.09 x265 [info]: Weighted P-Frames: Y:4.5% UV:3.0% x265 [info]: consecutive B-frames: 13.6% 6.7% 9.0% 37.7% 4.9% 9.2% 4.6% 12.9% 1.3% encoded 35336 frames in 19760.91s (1.79 fps), 5568.49 kb/s, Avg QP:21.26 MediaInfo General Unique ID : 73353865153242379277211708855241752097 (0x372F70C775BF38F9EA0B3E4ED8913E21) Complete name : /home/mrclay/Downloads/HEVC/[ShouryuuReppa] BLEACH: Sennen Kessen-hen 1080p [Multi-Subs][HEVC][x265][10bit][AAC]/[ShouryuuReppa] BLEACH: Sennen Kessen-hen 09 1080p [Multi-Subs][HEVC][x265][10bit][AAC].mkv Format : Matroska Format version : Version 4 File size : 1 001 MiB Duration : 24 min 33 s Overall bit rate : 5 697 kb/s Movie name : BLEACH: Sennen Kessen-hen 09 Encoded date : UTC 2022-12-05 23:29:47 Writing application : mkvmerge v45.0.0 ('Heaven in Pennies') 64-bit Writing library : libebml v1.3.10 + libmatroska v1.5.2 / Lavf58.76.100 Video ID : 1 Format : HEVC Format/Info : High Efficiency Video Coding Format profile : Main 10@L4@Main Codec ID : V_MPEGH/ISO/HEVC Duration : 24 min 33 s Bit rate : 5 569 kb/s Width : 1 920 pixels Height : 1 080 pixels Display aspect ratio : 16:9 Frame rate mode : Constant Frame rate : 23.976 (24000/1001) FPS Color space : YUV Chroma subsampling : 4:2:0 Bit depth : 10 bits Bits/(Pixel*Frame) : 0.112 Stream size : 978 MiB (98%) Writing library : x265 3.5+1-f0c1022b6:[Linux][GCC 9.3.0][64 bit] 10bit Encoding settings : cpuid=1111039 / frame-threads=2 / wpp / no-pmode / no-pme / no-psnr / no-ssim / log-level=2 / input-csp=1 / input-res=1920x1080 / interlace=0 / total-frames=0 / level-idc=0 / high-tier=1 / uhd-bd=0 / ref=4 / no-allow-non-conformance / no-repeat-headers / annexb / no-aud / no-hrd / info / hash=0 / no-temporal-layers / open-gop / min-keyint=24 / keyint=240 / gop-lookahead=0 / bframes=8 / b-adapt=2 / b-pyramid / bframe-bias=0 / rc-lookahead=40 / lookahead-slices=0 / scenecut=40 / hist-scenecut=0 / radl=0 / no-splice / no-intra-refresh / ctu=64 / min-cu-size=8 / rect / no-amp / max-tu-size=32 / tu-inter-depth=1 / tu-intra-depth=1 / limit-tu=0 / rdoq-level=1 / dynamic-rd=0.00 / no-ssim-rd / signhide / no-tskip / nr-intra=0 / nr-inter=0 / constrained-intra / strong-intra-smoothing / max-merge=3 / limit-refs=3 / limit-modes / me=3 / subme=3 / merange=57 / temporal-mvp / no-frame-dup / no-hme / weightp / no-weightb / no-analyze-src-pics / deblock=1:1 / sao / no-sao-non-deblock / rd=4 / selective-sao=4 / no-early-skip / rskip / no-fast-intra / no-tskip-fast / no-cu-lossless / no-b-intra / no-splitrd-skip / rdpenalty=0 / psy-rd=1.50 / psy-rdoq=2.00 / no-rd-refine / no-lossless / cbqpoffs=0 / crqpoffs=0 / rc=crf / crf=19.0 / qcomp=0.60 / qpstep=4 / stats-write=0 / stats-read=0 / ipratio=1.40 / pbratio=1.30 / aq-mode=3 / aq-strength=1.00 / cutree / zone-count=0 / no-strict-cbr / qg-size=32 / no-rc-grain / qpmax=69 / qpmin=0 / no-const-vbv / sar=1 / overscan=0 / videoformat=5 / range=0 / colorprim=1 / transfer=1 / colormatrix=1 / chromaloc=0 / display-window=0 / cll=0,0 / min-luma=0 / max-luma=1023 / log2-max-poc-lsb=8 / vui-timing-info / vui-hrd-info / slices=1 / no-opt-qp-pps / no-opt-ref-list-length-pps / no-multi-pass-opt-rps / scenecut-bias=0.05 / hist-threshold=0.03 / no-opt-cu-delta-qp / no-aq-motion / no-hdr10 / no-hdr10-opt / no-dhdr10-opt / no-idr-recovery-sei / analysis-reuse-level=0 / analysis-save-reuse-level=0 / analysis-load-reuse-level=0 / scale-factor=0 / refine-intra=0 / refine-inter=0 / refine-mv=1 / refine-ctu-distortion=0 / limit-sao / ctu-info=0 / no-lowpass-dct / refine-analysis-type=0 / copy-pic=1 / max-ausize-factor=1.0 / no-dynamic-refine / no-single-sei / no-hevc-aq / no-svt / no-field / qp-adaptation-range=1.00 / scenecut-aware-qp=0conformance-window-offsets / right=0 / bottom=0 / decoder-max-rate=0 / no-vbv-live-multi-pass Default : Yes Forced : No Color range : Limited Color primaries : BT.709 Transfer characteristics : BT.709 Matrix coefficients : BT.709 Audio ID : 2 Format : AAC LC Format/Info : Advanced Audio Codec Low Complexity Codec ID : A_AAC-2 Duration : 24 min 33 s Bit rate : 125 kb/s Channel(s) : 2 channels Channel layout : L R Sampling rate : 48.0 kHz Frame rate : 46.875 FPS (1024 SPF) Compression mode : Lossy Stream size : 22.0 MiB (2%) Title : ShouryuuReppa Language : Japanese Default : Yes Forced : No Text #1 ID : 3 Format : UTF-8 Codec ID : S_TEXT/UTF8 Codec ID/Info : UTF-8 Plain Text Duration : 24 min 2 s Bit rate : 70 b/s Count of elements : 370 Stream size : 12.4 KiB (0%) Title : NanDesuKa (DSNP) Language : English Default : Yes Forced : No Text #2 ID : 4 Format : UTF-8 Codec ID : S_TEXT/UTF8 Codec ID/Info : UTF-8 Plain Text Duration : 24 min 9 s Bit rate : 75 b/s Count of elements : 358 Stream size : 13.4 KiB (0%) Title : NanDesuKa (DSNP) Language : Spanish Default : No Forced : No Text #3 ID : 5 Format : UTF-8 Codec ID : S_TEXT/UTF8 Codec ID/Info : UTF-8 Plain Text Duration : 24 min 8 s Bit rate : 75 b/s Count of elements : 370 Stream size : 13.3 KiB (0%) Title : NanDesuKa (DSNP) Language : Portuguese Default : No Forced : No Menu 00:00:51.093 : :Intro 00:22:37.232 : :Credits 00:24:08.866 : :Post-Credits Scene

File list

  • [ShouryuuReppa] BLEACH: Sennen Kessen-hen 09 1080p [Multi-Subs][HEVC][x265][10bit][AAC].mkv (1001.0 MiB)