[ShouryuuReppa] BLEACH: Sennen Kessen-hen 09 1080p [Multi-Subs][h264_qsv][8bit][AAC]

Category:
Date:
2022-12-05 16:45 UTC
Submitter:
Seeders:
1
Information:
No information.
Leechers:
0
File size:
740.9 MiB
Completed:
556
Info hash:
29bbb3e1534b4e6f67401e003f248b611970e880
Source: NanDesuKa (DSNP) Encoding Settings ffmpeg -init_hw_device vaapi=va:/dev/dri/renderD128 -init_hw_device qsv=hw@va -hide_banner -v verbose -i "Bleach - S17E09 - 1080p WEB H.264 -NanDesuKa (DSNP).mkv" -map 0 -c:v h264_qsv -preset veryslow -global_quality 18 -profile:v high -level 4 -refs 4 -async_depth 5 -g 240 -rdo 1 -bf 3 -b_strategy 1 -bitrate_limit 1 -mbbrc 1 -color_primaries bt709 -color_trc bt709 -colorspace bt709 -pix_fmt nv12 -acodec copy -scodec copy "[ShouryuuReppa] BLEACH: Sennen Kessen-hen 09 1080p [Multi-Subs][h264_qsv][8bit][AAC].mkv" MediaInfo General Unique ID : 306146035979114585350205986875815809223 (0xE65194F1282D409BC30BF15921BCD0C7) Complete name : /home/mrclay/Downloads/H264_QSV/[ShouryuuReppa] BLEACH: Sennen Kessen-hen 1080p [Multi-Subs][h264_qsv][8bit][AAC]/[ShouryuuReppa] BLEACH: Sennen Kessen-hen 09 1080p [Multi-Subs][h264_qsv][8bit][AAC].mkv Format : Matroska Format version : Version 4 File size : 741 MiB Duration : 24 min 33 s Overall bit rate : 4 217 kb/s Movie name : BLEACH: Sennen Kessen-hen 09 Encoded date : UTC 2022-12-05 16:36:14 Writing application : mkvmerge v45.0.0 ('Heaven in Pennies') 64-bit Writing library : libebml v1.3.10 + libmatroska v1.5.2 / Lavf58.76.100 Video ID : 1 Format : AVC Format/Info : Advanced Video Codec Format profile : High@L4 Format settings : CABAC / 4 Ref Frames Format settings, CABAC : Yes Format settings, Reference frames : 4 frames Codec ID : V_MPEG4/ISO/AVC Duration : 24 min 33 s Bit rate : 4 089 kb/s Width : 1 920 pixels Height : 1 080 pixels Display aspect ratio : 16:9 Frame rate mode : Constant Frame rate : 23.976 (24000/1001) FPS Color space : YUV Chroma subsampling : 4:2:0 Bit depth : 8 bits Scan type : Progressive Bits/(Pixel*Frame) : 0.082 Stream size : 718 MiB (97%) Writing library : Lavc58.134.100 h264_qsv Default : Yes Forced : No Color range : Limited Color primaries : BT.709 Transfer characteristics : BT.709 Matrix coefficients : BT.709 Audio ID : 2 Format : AAC LC Format/Info : Advanced Audio Codec Low Complexity Codec ID : A_AAC-2 Duration : 24 min 33 s Bit rate : 125 kb/s Channel(s) : 2 channels Channel layout : L R Sampling rate : 48.0 kHz Frame rate : 46.875 FPS (1024 SPF) Compression mode : Lossy Stream size : 22.0 MiB (3%) Title : ShouryuuReppa Language : Japanese Default : Yes Forced : No Text #1 ID : 3 Format : UTF-8 Codec ID : S_TEXT/UTF8 Codec ID/Info : UTF-8 Plain Text Duration : 24 min 2 s Bit rate : 70 b/s Count of elements : 370 Stream size : 12.4 KiB (0%) Title : NanDesuKa (DSNP) Language : English Default : Yes Forced : No Text #2 ID : 4 Format : UTF-8 Codec ID : S_TEXT/UTF8 Codec ID/Info : UTF-8 Plain Text Duration : 24 min 9 s Bit rate : 75 b/s Count of elements : 358 Stream size : 13.4 KiB (0%) Title : NanDesuKa (DSNP) Language : Spanish Default : No Forced : No Text #3 ID : 5 Format : UTF-8 Codec ID : S_TEXT/UTF8 Codec ID/Info : UTF-8 Plain Text Duration : 24 min 8 s Bit rate : 75 b/s Count of elements : 370 Stream size : 13.3 KiB (0%) Title : NanDesuKa (DSNP) Language : Portuguese Default : No Forced : No Menu 00:00:51.093 : :Intro 00:22:37.232 : :Credits 00:24:08.866 : :Post-Credits Scene

File list

  • [ShouryuuReppa] BLEACH: Sennen Kessen-hen 09 1080p [Multi-Subs][h264_qsv][8bit][AAC].mkv (740.9 MiB)
I don't know what it is that you are doing right, but these h264_qsv 8bit (whatever that means) tagged episodes are the only Bleach episodes uploaded here besides the ones uploaded by [mal lu zen] that will play on my toaster laptop. Thank you so much! You allow me to watch this show.

ShouryuuReppa (uploader)

User
@EndlessMaria You're welcome.