[neoHEVC] The Great Jahy Will Not Be Defeated! [Season 1] [BD 1080p x265 HEVC AAC] [Dual Audio] Jahy-sama wa Kujikenai!

Category:
Date:
2022-12-01 16:20 UTC
Submitter:
Seeders:
34
Information:
Leechers:
1
File size:
7.4 GiB
Completed:
2336
Info hash:
0b9dd8d295c9c910a558e521ce4f313e45348732
![](https://i.imgur.com/RBlGp48.png) *Come hang out in **[Discord](https://discord.gg/47Q7FdB54e)*** #### **[The Great Jahy Will Not Be Defeated! [Season 1]](https://myanimelist.net/anime/48753/Jahy-sama_wa_Kujikenai)** ▶️ **[Trailer](https://www.youtube.com/watch?v=n7AcJ4sgAWw)** --- **Synopsis** The great Jahy will not be defeated! Simultaneously combating starvation, the lack of A/C, and the unavoidable weakness of turning child-sized, Jahy—previously the second strongest being in the Dark Realm—is under great stress. If it weren't for the destruction of the mana crystal which used to power the Dark Realm, Jahy would still be living a life of power and luxury. And yet, at the moment, brawling with the landlady over rent is a recurring event for Jahy. Just to have a place to stay and food to eat, Jahy must work part-time. However, her immense pride will not allow her to live under such poor conditions for any longer than necessary. Vowing to reinstate the Dark Realm to its former glory, Jahy continues her journey to reassemble the mana crystal. ![](https://i.imgur.com/bUC4xs7.png) --- **Language Options** I included two simple scripts that you can apply to these files to do the following (Windows only): 1. Make [Single Audio] Japanese: Throws out *English audio* and *Signs&Songs subtitles* tracks 2. Make [Single Audio] English: Throws out *Japanese audio* and *Dialogue subtitles* tracks To apply these put all the video files into the *Language Options* folder and run the .bat file. *Don't combine them and only use them once together with the base files.* --- **Source** 🗃️ Video and JPN Audio (JPN BDMV): **[[KoushinRip]](https://nyaa.si/view/1482863)** 🗃️ ENG Audio (WEB): **[[Yameii]](https://nyaa.si/view/1554909)** 🗃️ Subtitles: **[[GJM]](https://nyaa.si/view/1415842)** 💬 *Subtitles Info: [GJM]* *Thank you all for making this possible <3* --- **Media Info** 🆔 **[Full Mediainfo incl. Encoder Settings](https://pastebin.com/3FHV0e3V)** ``` General Unique ID : 303554445908553641946386854143993644718 (0xE45E75AFBB884E97672EFF3B3FC906AE) Complete name : The Great Jahy Will Not Be Defeated! - S01E01.mkv Format : Matroska Format version : Version 4 File size : 321 MiB Duration : 23 min 39 s Overall bit rate : 1 897 kb/s Movie name : The Great Jahy Will Not Be Defeated! - S01E01 Encoded date : UTC 2022-07-21 18:18:12 Writing application : mkvmerge v57.0.0 ('Till The End') 64-bit Writing library : libebml v1.4.2 + libmatroska v1.6.4 Attachments : DFNEKOMARUSTD-W12.OTF / DFTEGAKISUMISTD-W7.OTF / GANDHISANS-BOLD.OTF / GANDHISANS-BOLDITALIC.OTF / Inkfree.ttf / KUROKANESTD-EB-STR.OTF / LATO-REGULAR.TTF / ANIMATED.TTF / BABYDOLL.TTF / BROKENBRUSH.TTF / CACMOOSE.TTF / DANIELBLACK.TTF Video ID : 1 Format : HEVC Format/Info : High Efficiency Video Coding Format profile : Main 10@L4@High Codec ID : V_MPEGH/ISO/HEVC Duration : 23 min 39 s Bit rate : 1 519 kb/s Width : 1 920 pixels Height : 1 080 pixels Display aspect ratio : 16:9 Frame rate mode : Constant Frame rate : 23.976 (24000/1001) FPS Color space : YUV Chroma subsampling : 4:2:0 Bit depth : 10 bits Bits/(Pixel*Frame) : 0.031 Stream size : 257 MiB (80%) Writing library : x265 3.5+1-f0c1022b6:[Windows][GCC 9.2.0][64 bit] 10bit Encoding settings : <Check Link Above> Default : Yes Forced : No Color range : Limited Color primaries : BT.709 Transfer characteristics : BT.709 Matrix coefficients : BT.709 Audio #1 ID : 2 Format : AAC LC Format/Info : Advanced Audio Codec Low Complexity Codec ID : A_AAC-2 Duration : 23 min 39 s Bit rate : 128 kb/s Channel(s) : 2 channels Channel layout : L R Sampling rate : 44.1 kHz Frame rate : 43.066 FPS (1024 SPF) Compression mode : Lossy Stream size : 21.7 MiB (7%) Title : English Language : English Default : Yes Forced : No Audio #2 ID : 3 Format : AAC LC Format/Info : Advanced Audio Codec Low Complexity Codec ID : A_AAC-2 Duration : 23 min 38 s Bit rate : 202 kb/s Channel(s) : 2 channels Channel layout : L R Sampling rate : 48.0 kHz Frame rate : 46.875 FPS (1024 SPF) Compression mode : Lossy Delay relative to video : 7 ms Stream size : 34.2 MiB (11%) Title : Japanese Language : Japanese Default : No Forced : No Text #1 ID : 4 Format : ASS Codec ID : S_TEXT/ASS Codec ID/Info : Advanced Sub Station Alpha Duration : 23 min 38 s Bit rate : 16.0 kb/s Frame rate : 2.313 FPS Count of elements : 3281 Compression mode : Lossless Stream size : 2.71 MiB (1%) Title : Signs & Songs Language : English Default : No Forced : Yes Text #2 ID : 5 Format : ASS Codec ID : S_TEXT/ASS Codec ID/Info : Advanced Sub Station Alpha Duration : 23 min 38 s Bit rate : 16.1 kb/s Frame rate : 2.526 FPS Count of elements : 3583 Compression mode : Lossless Stream size : 2.73 MiB (1%) Title : Dialogue Language : English Default : Yes Forced : No Menu 00:00:00.000 : OP 00:01:30.007 : Main Episode 00:22:04.907 : ED 00:23:33.996 : Preview ```

File list

  • [neoHEVC] The Great Jahy Will Not Be Defeated! [Season 1] [BD 1080p x265 HEVC AAC] [Dual Audio]
    • Language Options
      • 1. Make [Single Audio] English.bat (254 Bytes)
      • 2. Make [Single Audio] Japanese.bat (254 Bytes)
      • mkvmerge.exe (9.6 MiB)
      • readme.txt (512 Bytes)
    • The Great Jahy Will Not Be Defeated! - S01E01.mkv (320.9 MiB)
    • The Great Jahy Will Not Be Defeated! - S01E02.mkv (336.9 MiB)
    • The Great Jahy Will Not Be Defeated! - S01E03.mkv (333.9 MiB)
    • The Great Jahy Will Not Be Defeated! - S01E04.mkv (356.8 MiB)
    • The Great Jahy Will Not Be Defeated! - S01E05.mkv (300.3 MiB)
    • The Great Jahy Will Not Be Defeated! - S01E06.mkv (371.0 MiB)
    • The Great Jahy Will Not Be Defeated! - S01E07.mkv (369.8 MiB)
    • The Great Jahy Will Not Be Defeated! - S01E08.mkv (256.1 MiB)
    • The Great Jahy Will Not Be Defeated! - S01E09.mkv (435.3 MiB)
    • The Great Jahy Will Not Be Defeated! - S01E10.mkv (410.7 MiB)
    • The Great Jahy Will Not Be Defeated! - S01E11.mkv (371.1 MiB)
    • The Great Jahy Will Not Be Defeated! - S01E12.mkv (399.0 MiB)
    • The Great Jahy Will Not Be Defeated! - S01E13.mkv (417.1 MiB)
    • The Great Jahy Will Not Be Defeated! - S01E14.mkv (342.8 MiB)
    • The Great Jahy Will Not Be Defeated! - S01E15.mkv (361.1 MiB)
    • The Great Jahy Will Not Be Defeated! - S01E16.mkv (404.7 MiB)
    • The Great Jahy Will Not Be Defeated! - S01E17.mkv (360.0 MiB)
    • The Great Jahy Will Not Be Defeated! - S01E18.mkv (441.8 MiB)
    • The Great Jahy Will Not Be Defeated! - S01E19.mkv (488.6 MiB)
    • The Great Jahy Will Not Be Defeated! - S01E20.mkv (514.8 MiB)

neoborn (uploader)

User
![](https://i.kym-cdn.com/photos/images/original/002/392/778/c51.gif)
ArigAtou gozAimAsu💕 ![💕](https://i.imgur.com/Bk8hGM1.png)
Oh, it's GJM. Damn.
The subs annoy me .... its not Jas ... its Hi-chan!!! And its not "Your Greatness" is "Jahy-sama" ... and she talks not in third person, refering to herself as "Us" she just says "I" ...!!!!
Been waiting for this one for ages, Can finally watch it now Thank you!
thanks, I love this anime. Btw. could you please allow to "follow" the upload notification channel on Discord? I think its a channel setting. thanks
Actually, @Sesshomaru, Jahy does speak in third person when referring to herself. It's something called the "Royal We." It's traditional for royals to refer to themselves like that. And Jahy is obviously royalty, being second-highest-ranked in Hell.
ok i get the "we" part, but why do the subs say "Jas" instead of "Hii-chan"? Or is that from the endlish dub?