[ShouryuuReppa] Chainsaw Man 08 1080p [h264_qsv][8bit][AAC]

Category:
Date:
2022-11-29 18:11 UTC
Submitter:
Seeders:
1
Information:
No information.
Leechers:
1
File size:
525.3 MiB
Completed:
71
Info hash:
37d25ee5fb6d95beac089506e927ea55fbceb389
Source: SubsPlease Encodiing Settings ffmpeg -init_hw_device vaapi=va:/dev/dri/renderD128 -init_hw_device qsv=hw@va -hide_banner -v verbose -i "[SubsPlease] Chainsaw Man - 08 (1080p) [95D16D74].mkv" -map 0 -c:v h264_qsv -preset veryslow -global_quality 18 -profile:v high -level 4 -refs 4 -async_depth 5 -g 240 -rdo 1 -bf 3 -b_strategy 1 -bitrate_limit 1 -mbbrc 1 -color_primaries bt709 -color_trc bt709 -colorspace bt709 -pix_fmt nv12 -acodec copy -scodec copy "[ShouryuuReppa] Chainsaw Man 08 1080p [h264_qsv][8bit][AAC].mkv" MediaInfo General Unique ID : 289577897380075372247563482023098457315 (0xD9DAACA425DC88C827A97732ED161CE3) Complete name : /home/mrclay/Downloads/H264_QSV/[ShouryuuReppa] Chainsaw Man 08 1080p [h264_qsv][8bit][AAC]/[ShouryuuReppa] Chainsaw Man 08 1080p [h264_qsv][8bit][AAC].mkv Format : Matroska Format version : Version 4 File size : 525 MiB Duration : 23 min 55 s Overall bit rate : 3 070 kb/s Movie name : Chainsaw Man 08 Encoded date : UTC 2022-11-29 18:03:52 Writing application : mkvmerge v45.0.0 ('Heaven in Pennies') 64-bit Writing library : libebml v1.3.10 + libmatroska v1.5.2 / Lavf58.76.100 Attachments : Roboto-Medium.ttf / Roboto-MediumItalic.ttf / arial.ttf / arialbd.ttf / comic.ttf / comicbd.ttf / times.ttf / timesbd.ttf / trebuc.ttf / trebucbd.ttf / verdana.ttf / verdanab.ttf / CONSOLA.TTF / CONSOLAB.TTF Video ID : 1 Format : AVC Format/Info : Advanced Video Codec Format profile : High@L4 Format settings : CABAC / 4 Ref Frames Format settings, CABAC : Yes Format settings, Reference frames : 4 frames Codec ID : V_MPEG4/ISO/AVC Duration : 23 min 55 s Bit rate : 2 904 kb/s Width : 1 920 pixels Height : 1 080 pixels Display aspect ratio : 16:9 Frame rate mode : Constant Frame rate : 23.976 (24000/1001) FPS Color space : YUV Chroma subsampling : 4:2:0 Bit depth : 8 bits Scan type : Progressive Bits/(Pixel*Frame) : 0.058 Stream size : 497 MiB (95%) Writing library : Lavc58.134.100 h264_qsv Default : Yes Forced : No Color range : Limited Color primaries : BT.709 Transfer characteristics : BT.709 Matrix coefficients : BT.709 Audio ID : 2 Format : AAC LC Format/Info : Advanced Audio Codec Low Complexity Codec ID : A_AAC-2 Duration : 23 min 55 s Bit rate : 128 kb/s Channel(s) : 2 channels Channel layout : L R Sampling rate : 44.1 kHz Frame rate : 43.066 FPS (1024 SPF) Compression mode : Lossy Stream size : 21.9 MiB (4%) Title : ShouryuuReppa Language : Japanese Default : Yes Forced : No Text ID : 3 Format : ASS Codec ID : S_TEXT/ASS Codec ID/Info : Advanced Sub Station Alpha Duration : 21 min 53 s Bit rate : 63 b/s Count of elements : 187 Compression mode : Lossless Stream size : 10.3 KiB (0%) Title : SubsPlease Language : English Default : Yes Forced : No

File list

  • [ShouryuuReppa] Chainsaw Man 08 1080p [h264_qsv][8bit][AAC].mkv (525.3 MiB)