[MiraiAnime] Summer Ghost (2021) [Movie] [V2] [BD 1080p x265 HEVC OPUS] [Dual-Audio] Project Common

Category:
Date:
2022-11-29 11:00 UTC
Submitter:
Seeders:
16
Information:
Leechers:
0
File size:
1020.4 MiB
Completed:
1524
Info hash:
b492b41d6d2ec1fb140add8d7ddd7e7d3fd2776e
|![](https://i.imgur.com/AGsxFz6.jpg)| | :-: | | [**Summer Ghost - MyAnimeList.net**](https://myanimelist.net/anime/48171/Summer_Ghost) | ___ #### **Information:** **V2:** Vspipe crashed for absolutely no reason and led to the last ~10min of the video track to be missing. I wasn't expecting there to be problems that far into the encode, especially since no errors have been reported. Sorry for the inconvenience! Filtered video and encoded with crf 19.5 to x265 8bit. Moved subtitles a little bit closer to the bottom of the screen. ___ ##### For requests, questions or ddl, join my (small) discord here: **https://discord.gg/8n7H3ArdCW** ##### I highly suggest you to use [mpv](https://mpv.io/) for playback. ___ **Summary:** * moved subtitles * audio was encoded to OPUS (opusenc, 512k) * video was encoded to HEVC (libx265, yuv420p) * naming scheme matches TheTVDB.com (for plex/radarr/emby/jellyfin/kodi compatibility) |Track-Type | Title | Attributes | |:-------------:|:-------------:|:-----:| |video|Japanese|x265 HEVC 8bit 23.976FPS 1920x1080| |audio|Japanese|48.0kHz 5.1 OPUS| |audio|English|48.0kHz 5.1 OPUS (**default**)| |subtitles|English|ass| |subtitles|Sign&Songs|ass (**default**)| |chapters| ___ #### **Source:** [**BDMV**](https://nyaa.si/view/1553005) - video, jpn-audio [**USBDMV**](https://nyaa.si/view/1603624) - eng-audio, chapters [**GJM**](https://nyaa.si/view/1509240 "gjm's release") - subtitles ___ #### **Screenshots:** |Screenshot 1|Screenshot 2|Screenshot 3|Screenshot 4| |:-:|:-:|:-:|:-:| |[![](https://i.imgur.com/a306dMJ.png)](https://i.ibb.co/vV6VFQD/Screenshot-1.png)|[![](https://i.imgur.com/RzqlKnl.png)](https://i.ibb.co/6PWXMjP/Screenshot-2.png)|[![](https://i.imgur.com/FzNiN0f.png)](https://i.ibb.co/xFxVNS6/Screenshot-3.png)|[![](https://i.imgur.com/vFRYAXt.png)](https://i.ibb.co/cQ939j7/Screenshot-4.png)| ___ #### **FFprobe:** ``` Input #0, matroska,webm, from 'Summer Ghost (2021).mkv': Metadata: creation_time : 2022-11-29T10:46:56.000000Z ENCODER : Lavf59.27.100 Duration: 00:39:53.55, start: -0.007000, bitrate: 3576 kb/s Chapters: Chapter #0:0: start 0.000000, end 284.637667 Metadata: title : Chapter 01 Chapter #0:1: start 284.637667, end 627.271625 Metadata: title : Chapter 02 Chapter #0:2: start 627.271625, end 914.892292 Metadata: title : Chapter 03 Chapter #0:3: start 914.892292, end 1207.643083 Metadata: title : Chapter 04 Chapter #0:4: start 1207.643083, end 1534.302750 Metadata: title : Chapter 05 Chapter #0:5: start 1534.302750, end 1995.763750 Metadata: title : Chapter 06 Chapter #0:6: start 1995.763750, end 2245.304708 Metadata: title : Chapter 07 Chapter #0:7: start 2245.304708, end 2392.493417 Metadata: title : Chapter 08 Chapter #0:8: start 2392.493417, end 2393.536125 Metadata: title : Chapter 09 Stream #0:0(jpn): Video: hevc (Main), yuv420p(tv, bt709), 1920x1080, SAR 1:1 DAR 16:9, 23.98 fps, 23.98 tbr, 1k tbn (default) Metadata: title : [Ronny] Japanese BPS : 2639039 DURATION : 00:39:53.475000000 NUMBER_OF_FRAMES: 57386 NUMBER_OF_BYTES : 789559358 _STATISTICS_WRITING_APP: mkvmerge v70.0.0.79 ('Caught A Lite Sneeze') 64-bit _STATISTICS_WRITING_DATE_UTC: 2022-11-29 10:46:56 _STATISTICS_TAGS: BPS DURATION NUMBER_OF_FRAMES NUMBER_OF_BYTES Stream #0:1(jpn): Audio: opus, 48000 Hz, 5.1, fltp Metadata: title : [Ronny] Japanese ENCODER_OPTIONS : --bitrate 512 ENCODER : Lavf59.27.100 BPS : 424533 DURATION : 00:39:53.479000000 NUMBER_OF_FRAMES: 119674 NUMBER_OF_BYTES : 127013887 _STATISTICS_WRITING_APP: mkvmerge v70.0.0.79 ('Caught A Lite Sneeze') 64-bit _STATISTICS_WRITING_DATE_UTC: 2022-11-29 10:46:56 _STATISTICS_TAGS: BPS DURATION NUMBER_OF_FRAMES NUMBER_OF_BYTES Stream #0:2(eng): Audio: opus, 48000 Hz, 5.1, fltp (default) Metadata: title : [npz] English ENCODER_OPTIONS : --bitrate 512 ENCODER : Lavf59.27.100 BPS : 420555 DURATION : 00:39:53.547000000 NUMBER_OF_FRAMES: 119678 NUMBER_OF_BYTES : 125827514 _STATISTICS_WRITING_APP: mkvmerge v70.0.0.79 ('Caught A Lite Sneeze') 64-bit _STATISTICS_WRITING_DATE_UTC: 2022-11-29 10:46:56 _STATISTICS_TAGS: BPS DURATION NUMBER_OF_FRAMES NUMBER_OF_BYTES Stream #0:3(eng): Subtitle: ass Metadata: title : [GJM] Dialogue BPS : 31980 DURATION : 00:36:19.430000000 NUMBER_OF_FRAMES: 29726 NUMBER_OF_BYTES : 8712348 _STATISTICS_WRITING_APP: mkvmerge v70.0.0.79 ('Caught A Lite Sneeze') 64-bit _STATISTICS_WRITING_DATE_UTC: 2022-11-29 10:46:56 _STATISTICS_TAGS: BPS DURATION NUMBER_OF_FRAMES NUMBER_OF_BYTES Stream #0:4(eng): Subtitle: ass (default) Metadata: title : [GJM] Sign&Songs BPS : 43033 DURATION : 00:26:53.400000000 NUMBER_OF_FRAMES: 29200 NUMBER_OF_BYTES : 8678786 _STATISTICS_WRITING_APP: mkvmerge v70.0.0.79 ('Caught A Lite Sneeze') 64-bit _STATISTICS_WRITING_DATE_UTC: 2022-11-29 10:46:56 _STATISTICS_TAGS: BPS DURATION NUMBER_OF_FRAMES NUMBER_OF_BYTES Stream #0:5: Attachment: ttf Metadata: filename : A-OTFFOLKPROM-EN-BOLD.TTF mimetype : application/x-truetype-font Stream #0:6: Attachment: ttf Metadata: filename : PTSans_Regular.ttf mimetype : application/x-truetype-font Stream #0:7: Attachment: ttf Metadata: filename : GandhiSans_Regular.otf mimetype : application/x-font-opentype Stream #0:8: Attachment: ttf Metadata: filename : arial.ttf mimetype : application/x-truetype-font Stream #0:9: Attachment: ttf Metadata: filename : PetitaMedium.ttf mimetype : application/x-truetype-font Stream #0:10: Attachment: ttf Metadata: filename : Cuprum.otf mimetype : application/x-font-opentype Stream #0:11: Attachment: ttf Metadata: filename : Asap_Regular.ttf mimetype : application/x-truetype-font Stream #0:12: Attachment: ttf Metadata: filename : Rough_City.otf mimetype : application/x-font-opentype Stream #0:13: Attachment: ttf Metadata: filename : UglyQua.ttf mimetype : application/x-truetype-font Stream #0:14: Attachment: ttf Metadata: filename : CROSSPATCHERSDELIGHTNORMAL.ttf mimetype : application/x-truetype-font Stream #0:15: Attachment: ttf Metadata: filename : Hand_Of_Sean.ttf mimetype : application/x-truetype-font Stream #0:16: Attachment: ttf Metadata: filename : AnnBrush.ttf mimetype : application/x-truetype-font Stream #0:17: Attachment: ttf Metadata: filename : Absolution.ttf mimetype : application/x-truetype-font Stream #0:18: Attachment: ttf Metadata: filename : ToscaZero_gyA4.otf mimetype : application/x-font-opentype ``` ___ #### **Many thanks [Ronny], [npz](https://nyaa.si/user/npz) and [GJM](https://nyaa.si/user/gjm) for making this possible!** ___ If you find anything that seems out of the ordinary, just post a comment or in my discord and I'll take a look at it.

File list

ArigAtou [@MiraiAnime](https://nyaa.si/user/ThatWaxEllo)-kun ![💕](https://i.imgur.com/Bk8hGM1.png)

ThatWaxEllo (uploader)

User
No problem Mr. :D