[neoHEVC] Himouto! Umaru-chan R [Season 2] [BD 1080p x265 HEVC AAC] [Dual Audio]

Category:
Date:
2022-11-24 15:28 UTC
Submitter:
Seeders:
16
Information:
Leechers:
3
File size:
3.1 GiB
Completed:
163
Info hash:
d7afd6b640776963567553656c88fbc074864f1d
![](https://i.imgur.com/RBlGp48.png) *Come hang out in **[Discord](https://discord.gg/47Q7FdB54e)*** #### **[Himouto! Umaru-chan R [Season 2]](https://myanimelist.net/anime/35376/Himouto_Umaru-chan_R)** ▶️ **[Trailer](https://www.youtube.com/watch?v=ErYS0z5WNsk)** --- **Synopsis** Umaru Doma is a model student who has a hidden side: when she gets home each day, she puts on her hamster hoodie and turns into a sluggish otaku fond of junk food. As Umaru continues these daily antics, the friendship between her and her classmates—Nana Ebina, Kirie Motoba, and Sylphinford Tachibana—deepens, and more and more interesting events begin to unfold. Of course, these events give rise to numerous questions. What did Nana ask of Umaru's brother Taihei? Who is the mysterious girl with the diamond hairpin? And most important of all: why does this girl seem to know Umaru? These questions and more will be answered in Himouto! Umaru-chan R! ![](https://i.imgur.com/lz3unOF.png) --- **Language Options** I included two simple scripts that you can apply to these files to do the following (Windows only): 1. Make [Single Audio] Japanese: Throws out *English audio* and *Signs&Songs subtitles* tracks 2. Make [Single Audio] English: Throws out *Japanese audio* and *Dialogue subtitles* tracks To apply these put all the video files into the *Language Options* folder and run the .bat file. *Don't combine them and only use them once together with the base files.* --- **Source** 🗃️ Video and JPN Audio (JPN BDMV): **[土間 うまる]** 🗃️ ENG Audio (WEB): **[[Yameii]](https://nyaa.si/view/1606256)** 🗃️ Subtitles: **[[YURI]](https://nyaa.si/view/1390341)** 💬 *Subtitles Info: [Nii-sama Astral]* *Thank you all for making this possible <3* --- **Media Info** 🆔 **[Full Mediainfo incl. Encoder Settings](https://pastebin.com/eBimHQQF)** ``` General Unique ID : 144703779500151727772789902777277300424 (0x6CDCEF27C429C14749E18779E7A53EC8) Complete name : Himouto! Umaru-chan - S02E01.mkv Format : Matroska Format version : Version 4 File size : 376 MiB Duration : 23 min 41 s Overall bit rate : 2 219 kb/s Movie name : Himouto! Umaru-chan - S02E01 Encoded date : UTC 2022-11-24 12:32:50 Writing application : mkvmerge v72.0.0 ('Minuano (Six-eight)') 64-bit Writing library : libebml v1.4.4 + libmatroska v1.7.1 Attachments : AnjaEliane.ttf / BDCARTOONSHOUT.TTF / bip.ttf / Courgette-Regular.ttf / fansubBlock.ttf / GandhiSans-Bold.otf / Happy_Hell.ttf / HoboStd.otf / KFhimaji.otf / Panton-ExtraBold.otf / BILLBH.TTF / BILLBH_.TTF / bip.ttf / BRLNSB.TTF / BROADW.TTF / CatCafe.ttf / Chalk Dash.ttf / ChalkDust.ttf / CHILLER.TTF / CM Big Fat Paintbrush.ttf / CP Font_0.ttf / D16GroupSansBold.ttf / deathrattlebb_reg.ttf / DFBrushRD-W7-WING-RKSJ-H.ttf / DFBrushRD-W7-WINP-RKSJ-H.ttf / DFBrushRD-W7-WIN-RKSJ-H.ttf / DFGBrushRD-W7_0.ttc / EASPORTS15.ttf / ElegantLux-Mager.OTF / ElegantLux-Mager.ttf / Even Stevens.ttf / FGKlara.ttf / GlamourGirl.ttf / graviolasoft_medium.ttf / GraviolaSoft-Medium.otf / HoboStd.otf / hobostd.ttf / ITCKRIST.TTF / IwaRGoPro-Db-Toaru.ttf / LATINWD.TTF / loveness.ttf / OCR-b___.ttf / Ozone.ttf / Painfresco-Regular.ttf / Pencil(sRB).TTF / Perisphere.ttf / rounded-x-mplus-2c-heavy.ttf / second breakfast.ttf / secondbreakfast.ttf / segoescb.ttf / SweetLove.ttf / Trading Post Bold.ttf / tt0007m_.ttf / tt0247m_.ttf / tt0292m_.ttf / tt0586m_.ttf / tt0628m_.ttf / ZODIASTI.TTF / AnjaEliane.ttf / AutourOne-Regular.ttf / badankadonk.ttf / Bemio.otf / bemio.ttf Video ID : 1 Format : HEVC Format/Info : High Efficiency Video Coding Format profile : Main 10@L4@High Codec ID : V_MPEGH/ISO/HEVC Duration : 23 min 41 s Bit rate : 1 654 kb/s Width : 1 920 pixels Height : 1 080 pixels Display aspect ratio : 16:9 Frame rate mode : Constant Frame rate : 23.976 (24000/1001) FPS Color space : YUV Chroma subsampling : 4:2:0 Bit depth : 10 bits Bits/(Pixel*Frame) : 0.033 Stream size : 280 MiB (75%) Writing library : x265 3.5+1-f0c1022b6:[Windows][GCC 9.2.0][64 bit] 10bit Encoding settings : <Check Link Above> Default : Yes Forced : No Color range : Limited Color primaries : BT.709 Transfer characteristics : BT.709 Matrix coefficients : BT.709 Audio #1 ID : 2 Format : AAC LC Format/Info : Advanced Audio Codec Low Complexity Codec ID : A_AAC-2 Duration : 23 min 40 s Bit rate : 192 kb/s Channel(s) : 2 channels Channel layout : L R Sampling rate : 48.0 kHz Frame rate : 46.875 FPS (1024 SPF) Compression mode : Lossy Stream size : 33.1 MiB (9%) Title : English Language : English Default : Yes Forced : No Audio #2 ID : 3 Format : AAC LC Format/Info : Advanced Audio Codec Low Complexity Codec ID : A_AAC-2 Duration : 23 min 41 s Bit rate : 208 kb/s Channel(s) : 2 channels Channel layout : L R Sampling rate : 48.0 kHz Frame rate : 46.875 FPS (1024 SPF) Compression mode : Lossy Stream size : 35.2 MiB (9%) Title : Japanese Language : Japanese Default : No Forced : No Text #1 ID : 4 Format : ASS Codec ID : S_TEXT/ASS Codec ID/Info : Advanced Sub Station Alpha Duration : 23 min 40 s Bit rate : 66 b/s Frame rate : 0.113 FPS Count of elements : 160 Compression mode : Lossless Stream size : 11.5 KiB (0%) Title : Signs & Songs Language : English Default : No Forced : Yes Text #2 ID : 5 Format : ASS Codec ID : S_TEXT/ASS Codec ID/Info : Advanced Sub Station Alpha Duration : 23 min 40 s Bit rate : 171 b/s Frame rate : 0.333 FPS Count of elements : 473 Compression mode : Lossless Stream size : 29.8 KiB (0%) Title : Dialogue Language : English Default : Yes Forced : No Menu 00:00:00.000 : en:Avant 00:00:13.013 : en:OP 00:01:43.020 : en:Part A 00:09:09.966 : en:Part B 00:21:55.898 : en:ED 00:23:25.863 : en:Next ```

File list

  • [neoHEVC] Himouto! Umaru-chan [Season 2] [BD 1080p x265 HEVC AAC] [Dual Audio]
    • Language Options
      • 1. Make [Single Audio] English.bat (254 Bytes)
      • 2. Make [Single Audio] Japanese.bat (254 Bytes)
      • mkvmerge.exe (9.6 MiB)
      • readme.txt (511 Bytes)
    • Himouto! Umaru-chan - S02E01.mkv (376.1 MiB)
    • Himouto! Umaru-chan - S02E02.mkv (269.1 MiB)
    • Himouto! Umaru-chan - S02E03.mkv (247.6 MiB)
    • Himouto! Umaru-chan - S02E04.mkv (262.1 MiB)
    • Himouto! Umaru-chan - S02E05.mkv (249.4 MiB)
    • Himouto! Umaru-chan - S02E06.mkv (276.9 MiB)
    • Himouto! Umaru-chan - S02E07.mkv (263.2 MiB)
    • Himouto! Umaru-chan - S02E08.mkv (250.7 MiB)
    • Himouto! Umaru-chan - S02E09.mkv (229.6 MiB)
    • Himouto! Umaru-chan - S02E10.mkv (266.5 MiB)
    • Himouto! Umaru-chan - S02E11.mkv (245.9 MiB)
    • Himouto! Umaru-chan - S02E12.mkv (262.4 MiB)

neoborn (uploader)

User
![](https://i.imgur.com/G6gWmLF.png) In case anybody is looking for [Season 1] and [S Special] in [Dual Audio] I'd recommend **[this](https://nyaa.si/view/923096)** or **[that](https://nyaa.si/view/1379479)**. Not as conveniently sized as this here but eh... *(It really is like girls always say, size does matter. But they got it turned up side down somehow :P)*
@neoborn thanks for the links, im not a big fan of shrunken files especially when anime is involved.

neoborn (uploader)

User
**@Nokou** To each their own =) *I like teasing the bloaty people as much as they like to hammer mini connoisseurs.* ![](https://i.imgur.com/k8urVaZ.png)
thanks for another great release, perfect encoding!
@neoborn thanks, can you do season 1 as well ? there isn't a single properly sized 1080 dual audio encode of it, all bloated 10-13GB for 12EPS !!! I already bought a 12TB HDD, I ain't buying another.

neoborn (uploader)

User
**@JoeGP** Haha I feel your frustration JoeGP believe me. But I can't make complete franchises all the time everytime one of these gets another season and I do that new season :( When I did something for season 1 of a fresh show then I'll stick with it and do whatever they pump out. But for these sequels where I got in late I have to decide case by case :S
@neoborn well I ended up downloading RH's encode and muxed it together with Aeenald's, which resulted in a 5.5GB dual audio BD1080 release, even that is way better than the other bloated releases, but it's still far from 3GBs like your season 2.