[Zoku] One Piece - Season 13 Voyage 8 (867-878) [1080p] [Funi WEB] [English Dub]

Category:
Date:
2022-11-23 02:42 UTC
Submitter:
Seeders:
10
Information:
No information.
Leechers:
1
File size:
12.7 GiB
Completed:
101
Info hash:
eecf2afc8f00f6ca37c54814800924bae226dca7
Video ID : 1 Format : AVC Format/Info : Advanced Video Codec Format profile : High@L4 Format settings : CABAC / 3 Ref Frames Format settings, CABAC : Yes Format settings, Reference frames : 3 frames Codec ID : V_MPEG4/ISO/AVC Duration : 24 min 9 s Bit rate : 6 056 kb/s Width : 1 920 pixels Height : 1 080 pixels Display aspect ratio : 16:9 Frame rate mode : Constant Frame rate : 23.976 (24000/1001) FPS Color space : YUV Chroma subsampling : 4:2:0 Bit depth : 8 bits Scan type : Progressive Bits/(Pixel*Frame) : 0.122 Stream size : 1.02 GiB (96%) Default : No Forced : No Color range : Limited Matrix coefficients : BT.709 Audio ID : 2 Format : AAC LC Format/Info : Advanced Audio Codec Low Complexity Codec ID : A_AAC-2 Duration : 24 min 9 s Bit rate : 256 kb/s Channel(s) : 2 channels Channel layout : L R Sampling rate : 48.0 kHz Frame rate : 46.875 FPS (1024 SPF) Compression mode : Lossy Stream size : 44.2 MiB (4%) Language : English Default : No Forced : No Text ID : 3 Format : ASS Codec ID : S_TEXT/ASS Codec ID/Info : Advanced Sub Station Alpha Duration : 23 min 51 s Compression mode : Lossless Title : Dialogue Language : English Default : No Forced : No

File list

  • [Zoku] One Piece - Season 13 Voyage 8 (867-878) [1080p] [English Audio]
    • One Piece - 867 - Lurking in the Darkness! An Assassin Targeting Luffy! [596391].mkv (1.1 GiB)
    • One Piece - 868 - One Man's Determination! Katakuri's Deadly Big Fight! [596495].mkv (1.1 GiB)
    • One Piece - 869 - Wake Up! The Color of Observation Able to Top the Strongest! [596392].mkv (1.0 GiB)
    • One Piece - 870 - A Fist of Divine Speed! Another Gear Four Application Activated! [807573].mkv (1.1 GiB)
    • One Piece - 871 - Finally, It's Over! The Climax of the Intense Fight against Katakuri! [807566].mkv (1.0 GiB)
    • One Piece - 872 - A Desperate Situation! The Iron-tight Entrapment of Luffy! [807582].mkv (1.1 GiB)
    • One Piece - 873 - Pulling Back from the Brink! The Formidable Reinforcements – Germa! [807591].mkv (1.1 GiB)
    • One Piece - 874 - The Last Hope! The Sun Pirates Emerge! [807592].mkv (1.1 GiB)
    • One Piece - 875 - A Captivating Flavor! Sanji's Cake of Happiness! [807598].mkv (1.1 GiB)
    • One Piece - 876 - The Man of Humanity and Justice! Jimbei, a Desperate Massive Ocean Current! [807599].mkv (1.1 GiB)
    • One Piece - 877 - The Parting Time! Pudding's Last Wish! [807600].mkv (1.1 GiB)
    • One Piece - 878 - The World is Stunned! The Fifth Emperor of the Sea Emerges! [807593].mkv (1.0 GiB)
This is awesome thanks, will you be doing Voyage 9 that just came out?

Tom403 (uploader)

User
Thanks @mikelanglois. Unfortunately it just came out for digital purchase and won't be available for streaming for about three weeks. As soon as it's streaming i'll have it for you.
Thanks very much @Tom403, much appreciated! :)
so, has it been streamed yet?