[ShouryuuReppa] BLEACH Sennen Kessen-hen 07 1080p [Multi-Subs][HEVC][x265][10bit][AAC]

Category:
Date:
2022-11-22 05:24 UTC
Submitter:
Seeders:
19
Information:
No information.
Leechers:
0
File size:
1.6 GiB
Completed:
820
Info hash:
26595d775ad149fef0646bbd2a08eb9f34c1d267
Source: NanDesuKa (DSNP) Encoding Settings ffmpeg -hide_banner -v verbose -i “Bleach - S17E07 - 1080p WEB H.264 -NanDesuKa (DSNP).mkv” -map 0 -c:v libx265 -preset slow -crf 19 -x265-params ref=4:min-keyint=24:keyint=240:bframes=8:rc-lookahead=40:lookahead-slices=0:constrained-intra=1:rdoq-level=1:deblock=1,1:psy-rd=1.50:psy-rdoq=2.00:aq-mode=3:range=limited:colorprim=bt709:transfer=bt709:colormatrix=bt709:limit-sao=1 -pix_fmt yuv420p10le -acodec copy -scodec copy “[ShouryuuReppa] BLEACH Sennen Kessen-hen 07 1080p [Multi-Subs][HEVC][x265][10bit][AAC].mkv” frame=35422 fps=1.0 q=27.0 Lsize= 1712631kB time=00:24:37.39 bitrate=9496.3kbits/s speed=0.0428x video:1689199kB audio:22611kB subtitle:26kB other streams:0kB global headers:2kB muxing overhead: 0.046363% x265 [info]: frame I: 410, Avg QP:16.39 kb/s: 22788.31 x265 [info]: frame P: 9235, Avg QP:18.00 kb/s: 16929.83 x265 [info]: frame B: 25777, Avg QP:21.65 kb/s: 6442.21 x265 [info]: Weighted P-Frames: Y:5.3% UV:3.4% x265 [info]: consecutive B-frames: 24.0% 10.0% 11.0% 29.5% 4.7% 8.4% 2.7% 7.5% 2.1% encoded 35422 frames in 34532.91s (1.03 fps), 9365.68 kb/s, Avg QP:20.64 MediaInfo General Unique ID : 160539107078712190567741041955280615588 (0x78C6B51555F54046BC9AE6EB9D6578A4) Complete name : C:\Users\mykee\Videos\[ShouryuuReppa] BLEACH Sennen Kessen-hen 07 1080p [Multi-Subs][HEVC][x265][10bit][AAC].mkv Format : Matroska Format version : Version 4 File size : 1.63 GiB Duration : 24 min 37 s Overall bit rate : 9 495 kb/s Movie name : BLEACH: Sennen Kessen-hen 07 Encoded date : UTC 2022-11-22 03:30:37 Writing application : mkvmerge v72.0.0 ('Minuano (Six-eight)') 64-bit Writing library : libebml v1.4.4 + libmatroska v1.7.1 / Lavf59.34.101 Video ID : 1 Format : HEVC Format/Info : High Efficiency Video Coding Format profile : Main 10@L4@Main Codec ID : V_MPEGH/ISO/HEVC Duration : 24 min 37 s Bit rate : 9 367 kb/s Width : 1 920 pixels Height : 1 080 pixels Display aspect ratio : 16:9 Frame rate mode : Constant Frame rate : 23.976 (24000/1001) FPS Color space : YUV Chroma subsampling : 4:2:0 (Type 0) Bit depth : 10 bits Bits/(Pixel*Frame) : 0.188 Stream size : 1.61 GiB (99%) Writing library : x265 3.5+40-0b75c44c1:[Windows][GCC 12.1.0][64 bit] 10bit Encoding settings : cpuid=1111039 / frame-threads=2 / numa-pools=4 / wpp / no-pmode / no-pme / no-psnr / no-ssim / log-level=2 / input-csp=1 / input-res=1920x1080 / interlace=0 / total-frames=0 / level-idc=0 / high-tier=1 / uhd-bd=0 / ref=4 / no-allow-non-conformance / no-repeat-headers / annexb / no-aud / no-eob / no-eos / no-hrd / info / hash=0 / no-temporal-layers / open-gop / min-keyint=24 / keyint=240 / gop-lookahead=0 / bframes=8 / b-adapt=2 / b-pyramid / bframe-bias=0 / rc-lookahead=40 / lookahead-slices=0 / scenecut=40 / no-hist-scenecut / radl=0 / no-splice / no-intra-refresh / ctu=64 / min-cu-size=8 / rect / no-amp / max-tu-size=32 / tu-inter-depth=1 / tu-intra-depth=1 / limit-tu=0 / rdoq-level=1 / dynamic-rd=0.00 / no-ssim-rd / signhide / no-tskip / nr-intra=0 / nr-inter=0 / constrained-intra / strong-intra-smoothing / max-merge=3 / limit-refs=3 / limit-modes / me=3 / subme=3 / merange=57 / temporal-mvp / no-frame-dup / no-hme / weightp / no-weightb / no-analyze-src-pics / deblock=1:1 / sao / no-sao-non-deblock / rd=4 / selective-sao=4 / no-early-skip / rskip / no-fast-intra / no-tskip-fast / no-cu-lossless / no-b-intra / no-splitrd-skip / rdpenalty=0 / psy-rd=1.50 / psy-rdoq=2.00 / no-rd-refine / no-lossless / cbqpoffs=0 / crqpoffs=0 / rc=crf / crf=19.0 / qcomp=0.60 / qpstep=4 / stats-write=0 / stats-read=0 / ipratio=1.40 / pbratio=1.30 / aq-mode=3 / aq-strength=1.00 / cutree / zone-count=0 / no-strict-cbr / qg-size=32 / no-rc-grain / qpmax=69 / qpmin=0 / no-const-vbv / sar=1 / overscan=0 / videoformat=5 / range=0 / colorprim=1 / transfer=1 / colormatrix=1 / chromaloc=1 / chromaloc-top=0 / chromaloc-bottom=0 / display-window=0 / cll=0,0 / min-luma=0 / max-luma=1023 / log2-max-poc-lsb=8 / vui-timing-info / vui-hrd-info / slices=1 / no-opt-qp-pps / no-opt-ref-list-length-pps / no-multi-pass-opt-rps / scenecut-bias=0.05 / hist-threshold=0.03 / no-opt-cu-delta-qp / no-aq-motion / no-hdr10 / no-hdr10-opt / no-dhdr10-opt / no-idr-recovery-sei / analysis-reuse-level=0 / analysis-save-reuse-level=0 / analysis-load-reuse-level=0 / scale-factor=0 / refine-intra=0 / refine-inter=0 / refine-mv=1 / refine-ctu-distortion=0 / limit-sao / ctu-info=0 / no-lowpass-dct / refine-analysis-type=0 / copy-pic=1 / max-ausize-factor=1.0 / no-dynamic-refine / no-single-sei / no-hevc-aq / no-svt / no-field / qp-adaptation-range=1.00 / scenecut-aware-qp=0conformance-window-offsets / right=0 / bottom=0 / decoder-max-rate=0 / no-vbv-live-multi-pass Default : Yes Forced : No Color range : Limited Color primaries : BT.709 Transfer characteristics : BT.709 Matrix coefficients : BT.709 Audio ID : 2 Format : AAC LC Format/Info : Advanced Audio Codec Low Complexity Codec ID : A_AAC-2 Duration : 24 min 37 s Bit rate : 125 kb/s Channel(s) : 2 channels Channel layout : L R Sampling rate : 48.0 kHz Frame rate : 46.875 FPS (1024 SPF) Compression mode : Lossy Stream size : 22.1 MiB (1%) Title : ShouryuuReppa Language : Japanese Default : Yes Forced : No Text #1 ID : 3 Format : UTF-8 Codec ID : S_TEXT/UTF8 Codec ID/Info : UTF-8 Plain Text Duration : 21 min 48 s Bit rate : 51 b/s Frame rate : 0.194 FPS Count of elements : 254 Stream size : 8.23 KiB (0%) Title : NanDesuKa (DSNP) Language : English Default : Yes Forced : No Text #2 ID : 4 Format : UTF-8 Codec ID : S_TEXT/UTF8 Codec ID/Info : UTF-8 Plain Text Duration : 21 min 56 s Bit rate : 55 b/s Frame rate : 0.194 FPS Count of elements : 255 Stream size : 8.89 KiB (0%) Title : NanDesuKa (DSNP) Language : Spanish Default : No Forced : No Text #3 ID : 5 Format : UTF-8 Codec ID : S_TEXT/UTF8 Codec ID/Info : UTF-8 Plain Text Duration : 21 min 55 s Bit rate : 57 b/s Frame rate : 0.204 FPS Count of elements : 268 Stream size : 9.30 KiB (0%) Title : NanDesuKa (DSNP) Language : Portuguese Default : No Forced : No Menu 00:24:36.200 : :Credits

File list

  • [ShouryuuReppa] BLEACH Sennen Kessen-hen 07 1080p [Multi-Subs][HEVC][x265][10bit][AAC].mkv (1.6 GiB)