[ShouryuuReppa] BLEACH Sennen Kessen-hen 07 1080p [Multi-Subs][h264_qsv][8bit][AAC]

Category:
Date:
2022-11-22 05:19 UTC
Submitter:
Seeders:
1
Information:
No information.
Leechers:
0
File size:
1.3 GiB
Completed:
204
Info hash:
872fd84a055b99e15f58f1b41e213a0a7efe45a9
Source: NanDesuKa (DSNP) Encoding Settings H264_QSV ffmpeg -hide_banner -v verbose -i “Bleach - S17E07 - 1080p WEB H.264 -NanDesuKa (DSNP).mkv” -map 0 -c:v h264_qsv -preset veryslow -global_quality 18 -profile:v high -level 4 -refs 4 -async_depth 5 -g 240 -rdo 1 -bf 3 -b_strategy 1 -bitrate_limit 1 -mbbrc 1 -color_primaries bt709 -color_trc bt709 -colorspace bt709 -pix_fmt nv12 -acodec copy -scodec copy “[ShouryuuReppa] BLEACH Sennen Kessen-hen 07 1080p [Multi-Subs][h264_qsv][8bit][AAC].mkv” MediaInfo General Unique ID : 22828160711479950960848147499829044881 (0x112C8B385FCCF22697D9A38CC0322691) Complete name : C:\Users\mykee\Videos\[ShouryuuReppa] BLEACH Sennen Kessen-hen 07 1080p [Multi-Subs][h264_qsv][8bit][AAC].mkv Format : Matroska Format version : Version 4 File size : 1.32 GiB Duration : 24 min 37 s Overall bit rate : 7 699 kb/s Movie name : BLEACH: Sennen Kessen-hen 07 Encoded date : UTC 2022-11-22 02:41:03 Writing application : mkvmerge v72.0.0 ('Minuano (Six-eight)') 64-bit Writing library : libebml v1.4.4 + libmatroska v1.7.1 / Lavf59.34.101 Video ID : 1 Format : AVC Format/Info : Advanced Video Codec Format profile : High@L4 Format settings : CABAC / 4 Ref Frames Format settings, CABAC : Yes Format settings, Reference frames : 4 frames Codec ID : V_MPEG4/ISO/AVC Duration : 24 min 37 s Bit rate : 7 571 kb/s Width : 1 920 pixels Height : 1 080 pixels Display aspect ratio : 16:9 Frame rate mode : Constant Frame rate : 23.976 (24000/1001) FPS Standard : Component Color space : YUV Chroma subsampling : 4:2:0 Bit depth : 8 bits Scan type : Progressive Bits/(Pixel*Frame) : 0.152 Stream size : 1.30 GiB (98%) Writing library : Lavc59.51.100 h264_qsv Default : Yes Forced : No Color range : Limited Color primaries : BT.709 Transfer characteristics : BT.709 Matrix coefficients : BT.709 Audio ID : 2 Format : AAC LC Format/Info : Advanced Audio Codec Low Complexity Codec ID : A_AAC-2 Duration : 24 min 37 s Bit rate : 125 kb/s Channel(s) : 2 channels Channel layout : L R Sampling rate : 48.0 kHz Frame rate : 46.875 FPS (1024 SPF) Compression mode : Lossy Stream size : 22.1 MiB (2%) Title : ShouryuuReppa Language : Japanese Default : Yes Forced : No Text #1 ID : 3 Format : UTF-8 Codec ID : S_TEXT/UTF8 Codec ID/Info : UTF-8 Plain Text Duration : 21 min 48 s Bit rate : 51 b/s Frame rate : 0.194 FPS Count of elements : 254 Stream size : 8.23 KiB (0%) Title : NanDesuKa (DSNP) Language : English Default : Yes Forced : No Text #2 ID : 4 Format : UTF-8 Codec ID : S_TEXT/UTF8 Codec ID/Info : UTF-8 Plain Text Duration : 21 min 56 s Bit rate : 55 b/s Frame rate : 0.194 FPS Count of elements : 255 Stream size : 8.89 KiB (0%) Title : NanDesuKa (DSNP) Language : Spanish Default : No Forced : No Text #3 ID : 5 Format : UTF-8 Codec ID : S_TEXT/UTF8 Codec ID/Info : UTF-8 Plain Text Duration : 21 min 55 s Bit rate : 57 b/s Frame rate : 0.204 FPS Count of elements : 268 Stream size : 9.30 KiB (0%) Title : NanDesuKa (DSNP) Language : Portuguese Default : No Forced : No Menu 00:24:36.200 : :Credits

File list

  • [ShouryuuReppa] BLEACH Sennen Kessen-hen 07 1080p [Multi-Subs][h264_qsv][8bit][AAC].mkv (1.3 GiB)