Miki Asakura (麻倉未稀) - SU TE KI (1988)

Category:
Date:
2022-11-15 15:00 UTC
Submitter:
Seeders:
10
Information:
No information.
Leechers:
0
File size:
320.8 MiB
Completed:
250
Info hash:
1f1302f4e44c4eb64eb3dd02d5c2eecf7399a09c
Info: - Miki Asakura ‎– Su・Te・Ki - Label: Crystal Bird ‎– K32X 315 - Format: CD, Album - Country: Japan - Released: 05 Dec 1988 - Genre: Rock, Pop Credits: - Backing Vocals: David Lasley - Bass: John Peña - Drums: Jeff Porcaro, John Robinson - Guitar: Michael Landau, Teddy Castellucci - Keyboards: Bill Meyers, David Benoit, David Garfield - Producer: Jeffrey Weber - Saxophone: Brandon Fields, Larry Klimas Dynamic Range: DR   Peak   RMS     Duration   Track DR14 -0.01 dB   -17.02 dB     4:16     01-カリフォルニア.ナイト DR15 -0.40 dB   -17.18 dB     4:19     02-SU・TE・KI DR14 -1.49 dB   -17.91 dB     4:05     03-オーシャン.ブリーズ DR14 -1.25 dB   -18.27 dB     4:25     04-永遠のメッセージ DR15 -0.00 dB   -18.49 dB     4:03     05-Find a New Way DR15 -0.00 dB   -17.30 dB     4:32     06-ミスティ.トワイライト DR12 -1.28 dB   -15.71 dB     4:26     07-EXPESS DR14 -0.20 dB   -16.73 dB     4:38     08-Pray for Love DR17 -0.00 dB   -19.09 dB     4:13     09-True Love DR15 -1.20 dB   -17.20 dB     3:36     10-ふたりだけのSecret Trip DR13 -3.77 dB  -22.72 dB      4:49     11-Crazy Love DR16 -0.00 dB  -17.35 dB      4:19     12-気がつけばFall in Love

File list

  • Miki Asukara - SU・TE・KI (1988)
    • Booklet
      • DK 001.jpg (967.7 KiB)
      • DK 002.jpg (585.8 KiB)
      • DK 003.jpg (820.7 KiB)
      • DK 004.jpg (604.5 KiB)
      • DK 005.jpg (671.4 KiB)
      • DK 006.jpg (545.5 KiB)
      • DK 007.jpg (283.2 KiB)
    • 01 - カリフォルニア.ナイト.flac (27.3 MiB)
    • 02 - SU・TE・KI.flac (27.9 MiB)
    • 03 - オーシャン.ブリーズ.flac (23.9 MiB)
    • 04 - 永遠のメッセージ.flac (26.4 MiB)
    • 05 - Find a New Way.flac (24.4 MiB)
    • 06 - ミスティ.トワイライト.flac (26.9 MiB)
    • 07 - EXPESS.flac (30.1 MiB)
    • 08 - Pray for Love.flac (30.4 MiB)
    • 09 - True Love.flac (25.9 MiB)
    • 10 - ふたりだけのSecret Trip.flac (23.4 MiB)
    • 11 - Crazy Love.flac (21.0 MiB)
    • 12 - 気がつけばFall in Love.flac (28.4 MiB)
    • Folder.jpg (475.8 KiB)
    • foo_dr.txt (1.5 KiB)