[ShouryuuReppa] BLEACH: Sennen Kessen-hen 06 1080p [Multi-Subs][h264_qsv][8bit][AAC]

Category:
Date:
2022-11-15 02:41 UTC
Submitter:
Seeders:
2
Information:
No information.
Leechers:
0
File size:
1.2 GiB
Completed:
443
Info hash:
f0cfb663c7496abcc7871e979030f8a98d65a316
Source: NanDesuKa (DSNP) Encoding Settings ffmpeg -init_hw_device vaapi=va:/dev/dri/renderD128 -init_hw_device qsv=hw@va -hide_banner -v verbose -i "Bleach - S17E06 - 1080p WEB H.264 -NanDesuKa (DSNP).mkv" -map 0 -c:v h264_qsv -preset veryslow -global_quality 18 -profile:v high -level 4 -refs 4 -async_depth 5 -g 240 -rdo 1 -bf 3 -b_strategy 1 -bitrate_limit 1 -mbbrc 1 -color_primaries bt709 -color_trc bt709 -colorspace bt709 -pix_fmt nv12 -acodec copy -scodec copy "[ShouryuuReppa] BLEACH: Sennen Kessen-hen 06 1080p [Multi-Subs][h264_qsv][8bit][AAC].mkv" MediaInfo General Unique ID : 315366306232997786346727543702537127553 (0xED41575CFA8CD18E0CA0CD1D15B44681) Complete name : /home/mrclay/Downloads/H264_QSV/[ShouryuuReppa] BLEACH: Sennen Kessen-hen 06 1080p [Multi-Subs][h264_qsv][8bit][AAC]/[ShouryuuReppa] BLEACH: Sennen Kessen-hen 06 1080p [Multi-Subs][h264_qsv][8bit][AAC].mkv Format : Matroska Format version : Version 4 File size : 1.21 GiB Duration : 24 min 34 s Overall bit rate : 7 022 kb/s Movie name : BLEACH: Sennen Kessen-hen 06 Encoded date : UTC 2022-11-15 02:30:28 Writing application : mkvmerge v45.0.0 ('Heaven in Pennies') 64-bit Writing library : libebml v1.3.10 + libmatroska v1.5.2 / Lavf58.76.100 Video ID : 1 Format : AVC Format/Info : Advanced Video Codec Format profile : High@L4 Format settings : CABAC / 4 Ref Frames Format settings, CABAC : Yes Format settings, Reference frames : 4 frames Codec ID : V_MPEG4/ISO/AVC Duration : 24 min 34 s Bit rate : 6 894 kb/s Width : 1 920 pixels Height : 1 080 pixels Display aspect ratio : 16:9 Frame rate mode : Constant Frame rate : 23.976 (24000/1001) FPS Color space : YUV Chroma subsampling : 4:2:0 Bit depth : 8 bits Scan type : Progressive Bits/(Pixel*Frame) : 0.139 Stream size : 1.18 GiB (98%) Writing library : Lavc58.134.100 h264_qsv Default : Yes Forced : No Color range : Limited Color primaries : BT.709 Transfer characteristics : BT.709 Matrix coefficients : BT.709 Audio ID : 2 Format : AAC LC Format/Info : Advanced Audio Codec Low Complexity Codec ID : A_AAC-2 Duration : 24 min 34 s Bit rate : 125 kb/s Channel(s) : 2 channels Channel layout : L R Sampling rate : 48.0 kHz Frame rate : 46.875 FPS (1024 SPF) Compression mode : Lossy Stream size : 22.0 MiB (2%) Title : ShouryuuReppa Language : Japanese Default : Yes Forced : No Text #1 ID : 3 Format : UTF-8 Codec ID : S_TEXT/UTF8 Codec ID/Info : UTF-8 Plain Text Duration : 23 min 56 s Bit rate : 61 b/s Count of elements : 309 Stream size : 10.9 KiB (0%) Title : NanDesuKa (DSNP) Language : English Default : Yes Forced : No Text #2 ID : 4 Format : UTF-8 Codec ID : S_TEXT/UTF8 Codec ID/Info : UTF-8 Plain Text Duration : 23 min 59 s Bit rate : 62 b/s Count of elements : 309 Stream size : 11.0 KiB (0%) Title : NanDesuKa (DSNP) Language : Spanish Default : No Forced : No Text #3 ID : 5 Format : UTF-8 Codec ID : S_TEXT/UTF8 Codec ID/Info : UTF-8 Plain Text Duration : 23 min 59 s Bit rate : 69 b/s Count of elements : 327 Stream size : 12.2 KiB (0%) Title : NanDesuKa (DSNP) Language : Portuguese Default : No Forced : No Menu 00:24:33.600 : :Credits

File list

  • [ShouryuuReppa] BLEACH: Sennen Kessen-hen 06 1080p [Multi-Subs][h264_qsv][8bit][AAC].mkv (1.2 GiB)