Attack on Titan - Season finale Part 2 [ITA-Jap][Marc1]

Category:
Date:
2022-11-12 12:58 UTC
Submitter:
Seeders:
0
Information:
No information.
Leechers:
0
File size:
16.9 GiB
Completed:
14
Info hash:
66f9a3a2f76401bf9298145176f2a8cd4daff7e8
![alt text](https://www.crunchyroll.com/imgsrv/display/thumbnail/1200x675/catalog/crunchyroll/9daa2f17d7ad2727d72fdeaae6e232de.jpeg) SPECS: Video Format/Info : Advanced Video Codec Codec ID : V_MPEG4/ISO/AVC Duration : 23 min 55 s Bit rate : 8 000 kb/s Width : 1 920 pixels Height : 1 080 pixels Display aspect ratio : 16:9 Bit depth : 8 bits Stream size : 1.33 GiB (97%) Audio #1 Format/Info : Advanced Audio Codec Low Complexity Codec ID : A_AAC-2 Duration : 23 min 55 s Bit rate : 128 kb/s Channel(s) : 2 channels Stream size : 21.9 MiB (2%) Language : Japanese Audio #2 Format/Info : Advanced Audio Codec Low Complexity Codec ID : A_AAC-2 Duration : 23 min 55 s Bit rate : 132 kb/s Sampling rate : 48.0 kHz Stream size : 22.3 MiB (2%) Language : Italian Text ID : 4 Format : UTF-8 Codec ID : S_TEXT/UTF8 Codec ID/Info : UTF-8 Plain Text Language : Italian

File list

  • Attack on Titan - Season finale PT2 [ITA-Jap][Marc1]
    • AoT - Season finale - 17 (76) - Giudizio.mkv (1.4 GiB)
    • AoT - Season finale - 18 (77) - Attacco a tradimento.mkv (1.4 GiB)
    • AoT - Season finale - 19 (78) - Fratelli maggiori e fratelli minori.mkv (1.4 GiB)
    • AoT - Season finale - 20 (79) - Ricordi dal futuro.mkv (1.4 GiB)
    • AoT - Season finale - 21 (80) - Da te, 2000 anni fa.mkv (1.4 GiB)
    • AoT - Season finale - 22 (81) - Disgelo.mkv (1.5 GiB)
    • AoT - Season finale - 23 (82) - Tramonto.mkv (1.4 GiB)
    • AoT - Season finale - 24 (83) - Orgoglio.mkv (1.4 GiB)
    • AoT - Season finale - 25 (84) - La notte della fine.mkv (1.4 GiB)
    • AoT - Season finale - 26 (85) - Traditore.mkv (1.4 GiB)
    • AoT - Season finale - 27 (86) - Retrospettiva.mkv (1.6 GiB)
    • AoT - Season finale - 28 (87) - L'alba dell'umanità.mkv (1.4 GiB)