[Kura] Detective Conan Movie 25 - The Bride of Halloween

Category:
Date:
2022-11-09 21:59 UTC
Submitter:
Seeders:
1
Information:
No information.
Leechers:
0
File size:
10.8 GiB
Completed:
140
Info hash:
74ca908ff318e12b5d69aba6ae12716f28b3e5c5
Format : Matroska Format version : Version 4 File size : 10.8 GiB Duration : 1 h 50 min Overall bit rate mode : Variable Overall bit rate : 13.9 Mb/s Movie name : [Kura] Detective Conan Movie 25 Encoded date : UTC 2022-11-09 18:22:08 Writing application : mkvmerge v67.0.0 ('Under Stars') 64-bit Writing library : libebml v1.4.2 + libmatroska v1.6.4 / Lavf58.45.100 Attachments : 25.jpg Video ID : 1 Format : AVC Format/Info : Advanced Video Codec Format profile : High@L4 Format settings : CABAC / 4 Ref Frames Format settings, CABAC : Yes Format settings, Reference frames : 4 frames Codec ID : V_MPEG4/ISO/AVC Duration : 1 h 50 min Bit rate : 10.7 Mb/s Width : 1 920 pixels Height : 1 080 pixels Display aspect ratio : 16:9 Frame rate mode : Constant Frame rate : 23.976 (24000/1001) FPS Color space : YUV Chroma subsampling : 4:2:0 Bit depth : 8 bits Scan type : Progressive Bits/(Pixel*Frame) : 0.215 Stream size : 8.25 GiB (77%) Title : 5.1 Japanese Writing library : x264 core 161 r3048 b86ae3c Encoding settings : cabac=1 / ref=4 / deblock=1:-3:-3 / analyse=0x3:0x133 / me=umh / subme=10 / psy=1 / psy_rd=1.00:0.00 / mixed_ref=1 / me_range=32 / chroma_me=1 / trellis=2 / 8x8dct=1 / cqm=0 / deadzone=6,6 / fast_pskip=1 / chroma_qp_offset=-2 / threads=16 / lookahead_threads=2 / sliced_threads=0 / nr=0 / decimate=0 / interlaced=0 / bluray_compat=0 / constrained_intra=0 / bframes=8 / b_pyramid=2 / b_adapt=2 / b_bias=0 / direct=3 / weightb=1 / open_gop=0 / weightp=2 / keyint=250 / keyint_min=23 / scenecut=40 / intra_refresh=0 / rc_lookahead=250 / rc=crf / mbtree=1 / crf=13.0 / qcomp=0.70 / qpmin=0 / qpmax=69 / qpstep=4 / ip_ratio=1.10 / aq=3:0.50 Language : Japanese Default : Yes Forced : No Audio ID : 2 Format : FLAC Format/Info : Free Lossless Audio Codec Codec ID : A_FLAC Duration : 1 h 50 min Bit rate mode : Variable Bit rate : 3 243 kb/s Channel(s) : 6 channels Channel layout : L R C LFE Ls Rs Sampling rate : 48.0 kHz Frame rate : 10.417 FPS (4608 SPF) Bit depth : 24 bits Compression mode : Lossless Stream size : 2.50 GiB (23%) Writing library : Lavf58.45.100 Language : Japanese Default : Yes Forced : No Menu 00:00:00.000 : ja:Chapter 01 00:05:48.556 : ja:Chapter 02 00:08:36.390 : ja:Chapter 03 00:11:47.707 : ja:Chapter 04 00:19:44.099 : ja:Chapter 05 00:22:18.670 : ja:Chapter 06 00:27:03.204 : ja:Chapter 07 00:40:19.708 : ja:Chapter 08 00:46:43.217 : ja:Chapter 09 00:52:01.535 : ja:Chapter 10 00:56:42.982 : ja:Chapter 11 01:09:46.807 : ja:Chapter 12 01:15:42.704 : ja:Chapter 13 01:23:39.180 : ja:Chapter 14 01:30:20.039 : ja:Chapter 15 01:36:45.466 : ja:Chapter 16 01:41:47.643 : ja:Chapter 17 01:44:06.156 : ja:Chapter 18 01:49:02.911 : ja:Chapter 19 01:50:11.605 : ja:Chapter 20

File list

  • [Kura] Detective Conan Movie 25 - The Bride of Halloween.mkv (10.8 GiB)
6/10 bitrate too high . get it right next time !

Kura61 (uploader)

User
i hate that you breathe ethan
why big size though? i am about to encode this, any tips?

Kura61 (uploader)

User
@vegeta bro it's not big for a 1080p bluray thats 2 hours long you wanna encode it? sure have fun