[neoHEVC] Selection Project [Season 1] [BD 1080p x265 HEVC AAC]

Category:
Date:
2022-10-30 09:39 UTC
Submitter:
Seeders:
10
Information:
Leechers:
0
File size:
3.5 GiB
Completed:
645
Info hash:
ed59e5860236260538506353836e3fb87b34f8dd
![](https://i.imgur.com/RBlGp48.png) *Come hang out in **[Discord](https://discord.gg/47Q7FdB54e)*** #### **[Selection Project [Season 1]](https://myanimelist.net/anime/44275/Selection_Project)** Notes: . Used [Setsugen] for EP 1-8 . Changed main font for EP 1-8 . Resampled script for EP 9-13 . Styled script for EP 9-13 . Inserted OPED from EP 1-8 for EP 9-13 . Created chapters for EP 9-13 ▶️ **[Trailer](https://www.youtube.com/watch?v=xXQcHuKEcOM)** --- **Synopsis** Due to a weak heart, Suzune Miyama has remained bedridden for most of her childhood. However, despite her illness, she has always dreamed of becoming an idol. Eventually, her opportunity comes in the form of the seventh Selection Project—a brutal series of competitions best known as the starting point of the legendary idol Akari Amasawa. Anxious but excited, Suzune enters the preliminary round of Selection Project. Though her singing dazzles the judges and her fellow competitors, Suzune is unfortunately overcome by her nerves and freezes up in the middle of her performance. She recovers quickly, but the stumble is great enough that she loses the winning spot and is disqualified. Or so it seems—until Seira Kurusu, the girl Suzune lost to, announces that she plans to drop out of Selection Project, believing Suzune is a more talented singer and therefore deserves the right to compete. Suzune is caught off guard by the decision, but promises Seira that they will meet again as top idols. She prepares herself for the challenging obstacles that lie ahead. ![](https://i.imgur.com/c46b2K9.png) --- **Source** 🗃️ Video and Audio (JP BDMV): **[Ronny]** 🗃️ Subtitles: **[[Setsugen]](https://nyaa.si/view/1445071)** **[[Erai-raws]](https://nyaa.si/view/1460708)** 💬 *Subtitles Info: [Setsugen] EP 1-8 [Me] EP 9-13, Edits, see notes* *Thank you all for making this possible <3* --- **Media Info** ``` General Unique ID : 192120941200883938157795606035942001544 (0x908925B966FB6368772AD89DA30ECB88) Complete name : Selection Project - S01E01.mkv Format : Matroska Format version : Version 4 File size : 228 MiB Duration : 23 min 41 s Overall bit rate : 1 347 kb/s Movie name : Selection Project - S01E01 Encoded date : UTC 2022-10-25 22:08:01 Writing application : mkvmerge v57.0.0 ('Till The End') 64-bit Writing library : libebml v1.4.2 + libmatroska v1.6.4 / Lavf58.76.100 Attachments : LTFinnegan_MediumItalic.ttf / MAIAN.TTF / CRONOSPRO-BOLD.OTF / CRONOSPRO-BOLDIT.OTF / myriadpro-light.otf / A-OTF-UDShinGoPr6N-DeBold.otf / ARIALN.TTF / arial-rounded-mt.ttf / ARLRDBD.TTF / DJBYARDSALEMARKER-BOLD.TTF / FRADM.TTF / framd.ttf / Franklin Gothic Demi.ttf / GOTHIC.TTF / LT_3_PL.ttf / MegaMarker.otf / MyriadPro-Semibold.ttf / MyriadPro-SemiboldIt.otf / 123Marker.ttf / Action Man hun.ttf / AdobeGothicStd-Bold.otf / andrewsc.ttf Video ID : 1 Format : HEVC Format/Info : High Efficiency Video Coding Format profile : Main 10@L4@High Codec ID : V_MPEGH/ISO/HEVC Duration : 23 min 41 s Bit rate : 1 156 kb/s Width : 1 920 pixels Height : 1 080 pixels Display aspect ratio : 16:9 Frame rate mode : Constant Frame rate : 23.976 (24000/1001) FPS Color space : YUV Chroma subsampling : 4:2:0 Bit depth : 10 bits Bits/(Pixel*Frame) : 0.023 Stream size : 196 MiB (86%) Writing library : x265 3.5+1-f0c1022b6:[Windows][GCC 9.2.0][64 bit] 10bit Encoding settings : cpuid=1111039 / frame-threads=2 / numa-pools=4 / wpp / no-pmode / no-pme / no-psnr / no-ssim / log-level=2 / input-csp=1 / input-res=1920x1080 / interlace=0 / total-frames=0 / level-idc=40 / high-tier=1 / uhd-bd=0 / ref=5 / no-allow-non-conformance / no-repeat-headers / annexb / no-aud / no-hrd / info / hash=0 / no-temporal-layers / open-gop / min-keyint=24 / keyint=240 / gop-lookahead=0 / bframes=16 / b-adapt=2 / b-pyramid / bframe-bias=0 / rc-lookahead=120 / lookahead-slices=4 / scenecut=40 / hist-scenecut=0 / radl=0 / no-splice / no-intra-refresh / ctu=64 / min-cu-size=8 / rect / no-amp / max-tu-size=32 / tu-inter-depth=1 / tu-intra-depth=1 / limit-tu=0 / rdoq-level=1 / dynamic-rd=0.00 / no-ssim-rd / signhide / no-tskip / nr-intra=0 / nr-inter=0 / no-constrained-intra / no-strong-intra-smoothing / max-merge=3 / limit-refs=3 / limit-modes / me=3 / subme=3 / merange=57 / temporal-mvp / no-frame-dup / no-hme / weightp / no-weightb / no-analyze-src-pics / deblock=-1:-1 / no-sao / no-sao-non-deblock / rd=4 / selective-sao=0 / no-early-skip / rskip / no-fast-intra / no-tskip-fast / no-cu-lossless / no-b-intra / no-splitrd-skip / rdpenalty=0 / psy-rd=2.00 / psy-rdoq=2.00 / no-rd-refine / no-lossless / cbqpoffs=0 / crqpoffs=0 / rc=crf / crf=20.5 / qcomp=0.60 / qpstep=4 / stats-write=0 / stats-read=0 / vbv-maxrate=30000 / vbv-bufsize=30000 / vbv-init=0.9 / min-vbv-fullness=50.0 / max-vbv-fullness=80.0 / crf-max=0.0 / crf-min=0.0 / ipratio=1.40 / pbratio=1.30 / aq-mode=3 / aq-strength=0.80 / cutree / zone-count=0 / no-strict-cbr / qg-size=32 / no-rc-grain / qpmax=69 / qpmin=0 / no-const-vbv / sar=1 / overscan=0 / videoformat=5 / range=0 / colorprim=1 / transfer=1 / colormatrix=1 / chromaloc=0 / display-window=0 / cll=0,0 / min-luma=0 / max-luma=1023 / log2-max-poc-lsb=8 / vui-timing-info / vui-hrd-info / slices=1 / no-opt-qp-pps / no-opt-ref-list-length-pps / no-multi-pass-opt-rps / scenecut-bias=0.05 / hist-threshold=0.03 / no-opt-cu-delta-qp / no-aq-motion / no-hdr10 / no-hdr10-opt / no-dhdr10-opt / no-idr-recovery-sei / analysis-reuse-level=0 / analysis-save-reuse-level=0 / analysis-load-reuse-level=0 / scale-factor=0 / refine-intra=0 / refine-inter=0 / refine-mv=1 / refine-ctu-distortion=0 / no-limit-sao / ctu-info=0 / no-lowpass-dct / refine-analysis-type=0 / copy-pic=1 / max-ausize-factor=1.0 / no-dynamic-refine / no-single-sei / no-hevc-aq / no-svt / no-field / qp-adaptation-range=1.00 / scenecut-aware-qp=0conformance-window-offsets / right=0 / bottom=0 / decoder-max-rate=0 / no-vbv-live-multi-pass Default : Yes Forced : No Color range : Limited Color primaries : BT.709 Transfer characteristics : BT.709 Matrix coefficients : BT.709 Audio ID : 2 Format : AAC LC Format/Info : Advanced Audio Codec Low Complexity Codec ID : A_AAC-2 Duration : 23 min 41 s Bit rate : 126 kb/s Channel(s) : 2 channels Channel layout : L R Sampling rate : 48.0 kHz Frame rate : 46.875 FPS (1024 SPF) Compression mode : Lossy Stream size : 21.4 MiB (9%) Title : Japanese Language : Japanese Default : Yes Forced : No Text ID : 3 Format : ASS Codec ID : S_TEXT/ASS Codec ID/Info : Advanced Sub Station Alpha Duration : 23 min 19 s Bit rate : 5 619 b/s Count of elements : 6043 Compression mode : Lossless Stream size : 960 KiB (0%) Title : Dialogue Language : English Default : Yes Forced : No Menu 00:00:00.000 : Prologue 00:01:57.034 : Part A 00:13:12.043 : Part B 00:17:40.394 : Insert Song - Only One Yell 00:19:10.734 : Part C ```

File list

  • [neoHEVC] Selection Project [Season 1] [BD 1080p x265 HEVC AAC]
    • Selection Project - S01E01.mkv (228.2 MiB)
    • Selection Project - S01E02.mkv (241.7 MiB)
    • Selection Project - S01E03.mkv (256.3 MiB)
    • Selection Project - S01E04.mkv (327.9 MiB)
    • Selection Project - S01E05.mkv (302.4 MiB)
    • Selection Project - S01E06.mkv (220.5 MiB)
    • Selection Project - S01E07.mkv (238.0 MiB)
    • Selection Project - S01E08.mkv (178.8 MiB)
    • Selection Project - S01E09.mkv (200.7 MiB)
    • Selection Project - S01E10.mkv (191.2 MiB)
    • Selection Project - S01E11.mkv (215.1 MiB)
    • Selection Project - S01E12.mkv (572.7 MiB)
    • Selection Project - S01E13.mkv (401.9 MiB)
So sad I already watched this, Cant wait, such a cute show

neoborn (uploader)

User
![](https://i.imgur.com/EGiVmjl.png)
Been waiting for this for almost a year! Thank you!

neoborn (uploader)

User
**@Tomatt** Was waiting for some lifesign from [Setsugen] but there was nothing so I caved and put this thing together. The subs for the later EP are functional at best though. No retiming, no signs TS but they are consistent with OP and ED and font styling at least >_<