Suzume no Tojimari / すずめの戸締まり (12-minute preview) [Amazon]

Category:
Date:
2022-10-30 05:20 UTC
Submitter:
Anonymous
Seeders:
3
Information:
No information.
Leechers:
0
File size:
345.0 MiB
Completed:
295
Info hash:
d030763174382668cbafaba7651c83b126621c74
12-minute preview of the upcoming movie "Suzume no Tojimari" The source is from Amazon Prime Video, so the quality is much better compared to the NTV rips. Included and timed the English subtitle from here: https://nyaa.si/view/1596075 [![vlcsnap-2022-10-30-05h14m31s990.png](https://i.postimg.cc/mDNSq18Y/vlcsnap-2022-10-30-05h14m31s990.png)](https://postimg.cc/WFzrqzRz) [![vlcsnap-2022-10-30-05h14m23s145.png](https://i.postimg.cc/SRSGpQvw/vlcsnap-2022-10-30-05h14m23s145.png)](https://postimg.cc/5YrzBJ13) Video ID : 1 Format : AVC Format/Info : Advanced Video Codec Format profile : High@L4 Format settings : CABAC / 4 Ref Frames Format settings, CABAC : Yes Format settings, Reference frames : 4 frames Codec ID : V_MPEG4/ISO/AVC Duration : 12 min 52 s Bit rate : 3 619 kb/s Width : 1 920 pixels Height : 800 pixels Display aspect ratio : 2.40:1 Frame rate mode : Constant Frame rate : 23.976 (24000/1001) FPS Color space : YUV Chroma subsampling : 4:2:0 Bit depth : 8 bits Scan type : Progressive Bits/(Pixel*Frame) : 0.098 Stream size : 333 MiB (97%) Default : Yes Forced : No Color range : Limited Color primaries : BT.709 Transfer characteristics : BT.709 Matrix coefficients : BT.709 Audio ID : 2 Format : AAC LC Format/Info : Advanced Audio Codec Low Complexity Codec ID : A_AAC-2 Duration : 12 min 52 s Bit rate : 128 kb/s Channel(s) : 2 channels Channel layout : L R Sampling rate : 48.0 kHz Frame rate : 46.875 FPS (1024 SPF) Compression mode : Lossy Stream size : 11.8 MiB (3%) Language : Japanese Default : Yes Forced : No Text ID : 3 Format : ASS Codec ID : S_TEXT/ASS Codec ID/Info : Advanced Sub Station Alpha Duration : 11 min 57 s Bit rate : 69 b/s Frame rate : 0.190 FPS Count of elements : 136 Compression mode : Lossless Stream size : 6.09 KiB (0%) Language : English Default : Yes Forced : No

File list

  • Suzume no Tojimari (12 minute preview).mkv (345.0 MiB)