[Deka-Z] Zoids Fuzors (BD 1080p x264 8bit AAC) [Dual-Audio]

Category:
Date:
2022-10-28 19:21 UTC
Submitter:
Seeders:
14
Information:
No information.
Leechers:
12
File size:
30.6 GiB
Completed:
967
Info hash:
8f00005fc463abce1e4d3422e3dce6143033f0c9
![alt text](https://image.tmdb.org/t/p/w220_and_h330_face/5tg6qeMYb9YLYk0biiNfuHAqPc.jpg "Zoids Fuzors") I am not the original creator, I am only uploading. **Credit:** Deka-Z --- General Complete name : Zoids Fuzors - S01E01 - Knockover on Planet Zi [Deka-Z].mp4 Format : MPEG-4 Format profile : Base Media Codec ID : isom (isom/iso2/avc1/mp41) File size : 1.10 GiB Duration : 24 min 11 s Overall bit rate : 6 528 kb/s Writing application : Lavf58.20.100 Video ID : 1 Format : AVC Format/Info : Advanced Video Codec Format profile : High@L4.2 Format settings : CABAC / 5 Ref Frames Format settings, CABAC : Yes Format settings, Reference frames : 5 frames Codec ID : avc1 Codec ID/Info : Advanced Video Coding Duration : 24 min 11 s Bit rate : 6 129 kb/s Width : 1 440 pixels Height : 1 080 pixels Display aspect ratio : 4:3 Frame rate mode : Variable Frame rate : 23.976 (24000/1001) FPS Minimum frame rate : 23.974 FPS Maximum frame rate : 23.981 FPS Color space : YUV Chroma subsampling : 4:2:0 Bit depth : 8 bits Scan type : Progressive Bits/(Pixel*Frame) : 0.164 Stream size : 1.04 GiB (94%) Writing library : x264 core 157 r2935 545de2f Encoding settings : cabac=1 / ref=5 / deblock=1:0:0 / analyse=0x3:0x113 / me=hex / subme=8 / psy=1 / psy_rd=1.00:0.00 / mixed_ref=1 / me_range=16 / chroma_me=1 / trellis=2 / 8x8dct=1 / cqm=0 / deadzone=21,11 / fast_pskip=1 / chroma_qp_offset=-2 / threads=34 / lookahead_threads=5 / sliced_threads=0 / nr=0 / decimate=1 / interlaced=0 / bluray_compat=0 / constrained_intra=0 / bframes=3 / b_pyramid=2 / b_adapt=1 / b_bias=0 / direct=3 / weightb=1 / open_gop=0 / weightp=2 / keyint=240 / keyint_min=24 / scenecut=40 / intra_refresh=0 / rc_lookahead=50 / rc=crf / mbtree=1 / crf=16.0 / qcomp=0.60 / qpmin=0 / qpmax=69 / qpstep=4 / vbv_maxrate=62500 / vbv_bufsize=78125 / crf_max=0.0 / nal_hrd=none / filler=0 / ip_ratio=1.40 / aq=1:1.00 Color range : Limited Color primaries : BT.709 Transfer characteristics : BT.709 Matrix coefficients : BT.709 Codec configuration box : avcC Audio #1 ID : 2 Format : AAC LC Format/Info : Advanced Audio Codec Low Complexity Codec ID : mp4a-40-2 Duration : 24 min 11 s Bit rate mode : Constant Bit rate : 197 kb/s Channel(s) : 2 channels Channel layout : L R Sampling rate : 48.0 kHz Frame rate : 46.875 FPS (1024 SPF) Compression mode : Lossy Stream size : 34.1 MiB (3%) Title : Stereo Language : Japanese Default : No Alternate group : 1 Audio #2 ID : 3 Format : AAC LC Format/Info : Advanced Audio Codec Low Complexity Codec ID : mp4a-40-2 Duration : 24 min 11 s Duration_LastFrame : -1 ms Bit rate mode : Constant Bit rate : 192 kb/s Channel(s) : 2 channels Channel layout : L R Sampling rate : 48.0 kHz Frame rate : 46.875 FPS (1024 SPF) Compression mode : Lossy Stream size : 33.2 MiB (3%) Language : English Default : Yes Alternate group : 1

File list

  • [Deka-Z] Zoids Fuzors (BD 1080p x264 8bit AAC) [Dual-Audio]
    • Extras
      • Zoids Fuzors - CG Showcase 1.mp4 (52.5 MiB)
      • Zoids Fuzors - CG Showcase 2.mp4 (55.9 MiB)
      • Zoids Fuzors - CG Showcase 3.mp4 (57.5 MiB)
      • Zoids Fuzors - CG Showcase 4.mp4 (65.6 MiB)
      • Zoids Fuzors - CG Showcase 5.mp4 (460.7 MiB)
      • Zoids Fuzors - Eyecatch.mp4 (169.0 MiB)
      • Zoids Fuzors - NCED.mp4 (50.6 MiB)
      • Zoids Fuzors - NCOP1.mp4 (97.9 MiB)
      • Zoids Fuzors - NCOP2.mp4 (92.1 MiB)
      • Zoids Fuzors - Zoids Showcase.mp4 (591.3 MiB)
    • Season 01
      • Zoids Fuzors - S01E01 - Knockover on Planet Zi [Deka-Z].mp4 (1.1 GiB)
      • Zoids Fuzors - S01E02 - 1+1= [Deka-Z] [English].mp4 (410.5 MiB)
      • Zoids Fuzors - S01E02 - 1+1= [Deka-Z] [Japanese].mp4 (1.3 GiB)
      • Zoids Fuzors - S01E03 - Enter the Fire Phoenix [Deka-Z].mp4 (1.1 GiB)
      • Zoids Fuzors - S01E04 - Fuzors Combine! Liger Zero Phoenix [Deka-Z].mp4 (1.0 GiB)
      • Zoids Fuzors - S01E05 - The Kid Called Matt [Deka-Z].mp4 (1.1 GiB)
      • Zoids Fuzors - S01E06 - Ambush in the Wasteland [Deka-Z].mp4 (1.0 GiB)
      • Zoids Fuzors - S01E07 - The Unseen Enemy [Deka-Z].mp4 (1.0 GiB)
      • Zoids Fuzors - S01E08 - Blue Lightning [Deka-Z].mp4 (950.5 MiB)
      • Zoids Fuzors - S01E09 - Good Work, Peace Keeping Bureau [Deka-Z].mp4 (1.1 GiB)
      • Zoids Fuzors - S01E10 - Visitor from the Past [v1.1] [Deka-Z].mp4 (1.2 GiB)
      • Zoids Fuzors - S01E11 - Brutal Battle Royal [Deka-Z].mp4 (1.0 GiB)
      • Zoids Fuzors - S01E12 - Matt Battled RD [Deka-Z].mp4 (1.0 GiB)
      • Zoids Fuzors - S01E13 - Three Teams Face Off [Deka-Z].mp4 (1.0 GiB)
      • Zoids Fuzors - S01E14 - Awakening of the Evil Dragon [Deka-Z].mp4 (1.0 GiB)
      • Zoids Fuzors - S01E15 - Lost Wings [Deka-Z].mp4 (1.1 GiB)
      • Zoids Fuzors - S01E16 - A New Friend [Deka-Z].mp4 (1.2 GiB)
      • Zoids Fuzors - S01E17 - Nightmare In The Sky [Deka-Z].mp4 (1.3 GiB)
      • Zoids Fuzors - S01E18 - Glory for the Man [Deka-Z].mp4 (1008.9 MiB)
      • Zoids Fuzors - S01E19 - Showdown at High Noon [Deka-Z].mp4 (1012.5 MiB)
      • Zoids Fuzors - S01E20 - Evolution [Deka-Z].mp4 (1.1 GiB)
      • Zoids Fuzors - S01E21 - The Water's Surface and the Under Current [Deka-Z].mp4 (1.0 GiB)
      • Zoids Fuzors - S01E22 - Rampage of the God of Destruction [Deka-Z].mp4 (1.2 GiB)
      • Zoids Fuzors - S01E23 - The End of Mach Storm [Deka-Z].mp4 (1.0 GiB)
      • Zoids Fuzors - S01E24 - The Legendary Zoid [Deka-Z].mp4 (1.3 GiB)
      • Zoids Fuzors - S01E25 - Showdown [Deka-Z].mp4 (1.2 GiB)
      • Zoids Fuzors - S01E26 - Blue Skies Over Planet Zi [Deka-Z].mp4 (1.3 GiB)
Thanks! Keep em coming.
could you encode without mbtree || mbtree=0
How i can contact Deka-Z?

Tom403 (uploader)

User
@grawl @Bleachway You're welcome :) @ChadXBeriz I'm not encoder, Deka-Z is. @roadrush Don't bother, I believe he goes by a different name now and there's no point since those idiot Zoids mods will straight up ban you for any talk about these encodes like they did to me.