[ShouryuuReppa] Boku no Hero Academia 117 1080p [h264_qsv][8bit][AAC]

Category:
Date:
2022-10-23 03:47 UTC
Submitter:
Seeders:
0
Information:
No information.
Leechers:
1
File size:
707.1 MiB
Completed:
54
Info hash:
1875135794d762c75b57d20b836bdf2b5b7f46b4
Source: SubsPlease Encoding Settings ffmpeg -hide_banner -v verbose -i “[SubsPlease] Boku no Hero Academia - 117 (1080p) [27059ADF].mkv” -c:v h264_qsv -preset veryslow -global_quality 18 -profile:v high -level 4 -refs 4 -async_depth 5 -g 240 -rdo 1 -bf 3 -b_strategy 1 -bitrate_limit 1 -mbbrc 1 -color_primaries bt709 -color_trc bt709 -colorspace bt709 -pix_fmt nv12 -acodec copy -scodec copy “[ShouryuuReppa] Boku no Hero Academia 117 1080p [h264_qsv][8bit][AAC].mkv” MediaInfo General Unique ID : 261294093634680682287229070262384103346 (0xC4936973BCA7561517B3ABABD95E8FB2) Complete name : C:\Users\mykee\Videos\[ShouryuuReppa] Boku no Hero Academia 117 1080p [h264_qsv][8bit][AAC].mkv Format : Matroska Format version : Version 4 File size : 707 MiB Duration : 23 min 55 s Overall bit rate : 4 132 kb/s Movie name : Boku no Hero Academia 117 Encoded date : UTC 2022-10-23 02:03:35 Writing application : mkvmerge v71.1.0 ('Fortitude') 64-bit Writing library : libebml v1.4.4 + libmatroska v1.7.1 / Lavf59.34.101 Attachments : Roboto-Medium.ttf / Roboto-MediumItalic.ttf / arial.ttf / arialbd.ttf / comic.ttf / comicbd.ttf / times.ttf / timesbd.ttf / trebuc.ttf / trebucbd.ttf / verdana.ttf / verdanab.ttf Video ID : 1 Format : AVC Format/Info : Advanced Video Codec Format profile : High@L4 Format settings : CABAC / 4 Ref Frames Format settings, CABAC : Yes Format settings, Reference frames : 4 frames Codec ID : V_MPEG4/ISO/AVC Duration : 23 min 50 s Bit rate : 3 985 kb/s Width : 1 920 pixels Height : 1 080 pixels Display aspect ratio : 16:9 Frame rate mode : Constant Frame rate : 23.976 (24000/1001) FPS Standard : Component Color space : YUV Chroma subsampling : 4:2:0 Bit depth : 8 bits Scan type : Progressive Bits/(Pixel*Frame) : 0.080 Stream size : 679 MiB (96%) Writing library : Lavc59.51.100 h264_qsv Default : Yes Forced : No Color range : Limited Color primaries : BT.709 Transfer characteristics : BT.709 Matrix coefficients : BT.709 Audio ID : 2 Format : AAC LC Format/Info : Advanced Audio Codec Low Complexity Codec ID : A_AAC-2 Duration : 23 min 50 s Bit rate : 128 kb/s Channel(s) : 2 channels Channel layout : L R Sampling rate : 44.1 kHz Frame rate : 43.066 FPS (1024 SPF) Compression mode : Lossy Stream size : 21.8 MiB (3%) Title : ShouryuuReppa Language : Japanese Default : Yes Forced : No Text ID : 3 Format : ASS Codec ID : S_TEXT/ASS Codec ID/Info : Advanced Sub Station Alpha Duration : 23 min 52 s Bit rate : 94 b/s Frame rate : 0.224 FPS Count of elements : 321 Compression mode : Lossless Stream size : 16.4 KiB (0%) Title : SubsPlease Language : English Default : Yes Forced : No

File list

  • [ShouryuuReppa] Boku no Hero Academia 117 1080p [h264_qsv][8bit][AAC].mkv (707.1 MiB)