[neoHEVC] Date A Live [Season 4] [BD 1080p x265 HEVC AAC] [Dual Audio]

Category:
Date:
2022-10-17 18:24 UTC
Submitter:
Seeders:
7
Information:
Leechers:
0
File size:
3.4 GiB
Completed:
415
Info hash:
605263bbf0733de0bdef482c4dee8e92ff14b7e9
![](https://i.imgur.com/RBlGp48.png) *Come hang out in **[Discord](https://discord.gg/47Q7FdB54e)*** #### **[Date A Live [Season 4]](https://myanimelist.net/anime/41461/Date_A_Live_IV)** โ–ถ๏ธ **[Trailer](https://www.youtube.com/watch?v=Dvn0XsA73Yo)** --- **Synopsis** Despite the numerous challenges he has overcome so far, Shidou Itsuka's mission with Ratatoskr is far from over. In a departure from his daily routine, Shidou encounters a starving woman lying on the street and ends up helping her. After the two arrive at her apartment, the woman introduces herself as Nia Honjouโ€”a popular manga artist working under a pen name. However, cutting straight to the chase, Nia reveals that she is also a Spirit and is aware of Shidou's secret operation. Interested in seeing his charisma firsthand, Nia challenges Shidou to win her over on a date. As he strives for an opportunity to seal her powers, Shidou learns more about Nia and her history with Deus Ex Machina Industries, a name he is all too familiar with... ![](https://i.imgur.com/lIaEEI9.png) --- **Language Options** I included two simple scripts that you can apply to these files to do the following (Windows only): 1. Make [Single Audio] Japanese: Throws out *English audio* and *Signs&Songs subtitles* tracks 2. Make [Single Audio] English: Throws out *Japanese audio* and *Dialogue subtitles* tracks To apply these put all the video files into the *Language Options* folder and run the .bat file. *Don't combine them and only use them once together with the base files.* --- **Source** ๐Ÿ—ƒ๏ธ Video and JPN Audio (BDMV): **[ๆ‘ไธŠๆ–‡็ท’]** Vol 1 **[Natsumi]** Vol 2 ๐Ÿ—ƒ๏ธ ENG Audio (WEB): **[[Yameii]](https://nyaa.si/view/1521200)** ๐Ÿ—ƒ๏ธ Subtitles: **[[Nii-sama]](https://nyaa.si/view/1547033)** ๐Ÿ’ฌ *Subtitles Info: [Nii-sama]* *Thank you all for making this possible <3* --- **Media Info** ๐Ÿ†” [Full Mediainfo incl. Encoder Settings](https://pastebin.com/VNWtxh6w) ``` General Unique ID : 312316810441003369280876229200603826344 (0xEAF6079CCDBCFF13E40C9F40C8D0C8A8) Complete name : Date A Live - S04E01.mkv Format : Matroska Format version : Version 4 File size : 281 MiB Duration : 23 min 46 s Overall bit rate : 1 653 kb/s Movie name : Date A Live - S04E01 Writing application : Lavf58.47.100 Writing library : Lavf58.47.100 ErrorDetectionType : Per level 1 Attachments : arialbd.ttf / arialbi.ttf / boopee_regular.ttf / BOSTHONBRUSH.ttf / BPreplay-Bold.ttf / BRITANIC.TTF / Brushcut.ttf / CrocodileFeet-Regular.ttf / Emotion Engine.otf / LATO-BOLD.TTF / LatoWeb-BoldItalic.ttf / Mermaid1001.ttf / PAPERJOHNNYEINS.TTF / THERIFV2.TTF Video ID : 1 Format : HEVC Format/Info : High Efficiency Video Coding Format profile : Main 10@L4@High Codec ID : V_MPEGH/ISO/HEVC Duration : 23 min 42 s Bit rate : 1 234 kb/s Width : 1 920 pixels Height : 1 080 pixels Display aspect ratio : 16:9 Frame rate mode : Variable Frame rate : 23.976 FPS Color space : YUV Chroma subsampling : 4:2:0 Bit depth : 10 bits Bits/(Pixel*Frame) : 0.025 Stream size : 209 MiB (74%) Writing library : x265 3.5+1-f0c1022b6:[Windows][GCC 9.2.0][64 bit] 10bit Encoding settings : <Check Link Above> Default : Yes Forced : No Color range : Limited Color primaries : BT.709 Transfer characteristics : BT.709 Matrix coefficients : BT.709 Audio #1 ID : 2 Format : AAC LC Format/Info : Advanced Audio Codec Low Complexity Codec ID : A_AAC-2 Duration : 23 min 40 s Channel(s) : 2 channels Channel layout : L R Sampling rate : 48.0 kHz Frame rate : 46.875 FPS (1024 SPF) Compression mode : Lossy Title : English Writing library : Lavc58.93.100 aac Language : English Default : Yes Forced : No Audio #2 ID : 3 Format : AAC LC Format/Info : Advanced Audio Codec Low Complexity Codec ID : A_AAC-2 Duration : 23 min 42 s Bit rate : 239 kb/s Channel(s) : 2 channels Channel layout : L R Sampling rate : 48.0 kHz Frame rate : 46.875 FPS (1024 SPF) Compression mode : Lossy Delay relative to video : 21 ms Stream size : 40.5 MiB (14%) Title : Japanese Language : Japanese Default : No Forced : No Text #1 ID : 4 Format : ASS Codec ID : S_TEXT/ASS Codec ID/Info : Advanced Sub Station Alpha Duration : 23 min 46 s Bit rate : 101 b/s Count of elements : 141 Compression mode : Lossless Stream size : 17.7 KiB (0%) Title : Signs & Songs Writing library : Lavc58.93.100 ssa Language : English Default : No Forced : Yes Text #2 ID : 5 Format : ASS Codec ID : S_TEXT/ASS Codec ID/Info : Advanced Sub Station Alpha Duration : 23 min 46 s Bit rate : 195 b/s Count of elements : 430 Compression mode : Lossless Stream size : 34.1 KiB (0%) Title : Dialogue Writing library : Lavc58.93.100 ssa Language : English Default : Yes Forced : No Menu 00:00:00.000 : :Intro 00:01:01.960 : :OP 00:02:32.010 : :Episode 00:21:53.710 : :ED 00:23:25.880 : :Preview ```

File list

  • [neoHEVC] Date A Live [Season 4] [BD 1080p x265 HEVC AAC] [Dual Audio]
    • Language Options
      • 1. Make [Single Audio] English.bat (254 Bytes)
      • 2. Make [Single Audio] Japanese.bat (254 Bytes)
      • mkvmerge.exe (9.6 MiB)
      • readme.txt (511 Bytes)
    • Date A Live - S04E01.mkv (281.0 MiB)
    • Date A Live - S04E02.mkv (248.8 MiB)
    • Date A Live - S04E03.mkv (290.2 MiB)
    • Date A Live - S04E04.mkv (290.9 MiB)
    • Date A Live - S04E05.mkv (325.3 MiB)
    • Date A Live - S04E06.mkv (338.3 MiB)
    • Date A Live - S04E07.mkv (313.1 MiB)
    • Date A Live - S04E08.mkv (306.2 MiB)
    • Date A Live - S04E09.mkv (261.9 MiB)
    • Date A Live - S04E10.mkv (245.1 MiB)
    • Date A Live - S04E11.mkv (269.7 MiB)
    • Date A Live - S04E12.mkv (296.6 MiB)