[neoHEVC] Life with an Ordinary Guy who Reincarnated into a Total Fantasy Knockout [Season 1] [BD 1080p x265 HEVC AAC] [Dual Audio] Fantasy Bishoujo Juniku Ojisan to

Category:
Date:
2022-10-06 21:00 UTC
Submitter:
Seeders:
14
Information:
Leechers:
1
File size:
4.0 GiB
Completed:
950
Info hash:
a74810d12ce1e7c601cd86d0cba52316785c4e78
![](https://i.imgur.com/RBlGp48.png) *Come hang out in **[Discord](https://discord.gg/47Q7FdB54e)*** #### **[Life with an Ordinary Guy who Reincarnated into a Total Fantasy Knockout [Season 1]](https://myanimelist.net/anime/48997/Fantasy_Bishoujo_Juniku_Ojisan_to)** Notes: *. Other than the English audio track and accompanying Signs&Songs subtitle track, this is the same as the initial [Single Audio] upload.* ▶️ **[Trailer](https://www.youtube.com/watch?v=nUn7FvE4jV0)** --- **Synopsis** Since their days as students, Tsukasa Jinguuji has had incredible luck with women due to his good looks; Hinata Tachibana has had almost none, overshadowed by Jinguuji's brilliance. However, while Jinguuji has never shown interest in the opposite sex, Tachibana is always desperate for a girlfriend. Despite their polar differences, they continue to be best friends even in their thirties as salarymen. One night, the two are returning home from a mixer where Jinguuji was the center of attention as usual. In his drunken rambles, a frustrated Tachibana inadvertently wishes to become a beautiful girl with irresistible charm. As if the heavens were listening, a goddess suddenly shows herself before Jinguuji and Tachibana, transporting them to another world to defeat the Demon Lord and simultaneously granting Tachibana's desire. Tachibana—now in the body of an impossibly perfect woman—has become so attractive that even Jinguuji is captivated. Moreover, Tachibana grows aware of Jinguuji's stunning appearance, finally understanding his popularity. Before they fall in love with each other, the duo must complete their mission or risk remaining prisoners to their infatuations forever. ![](https://i.imgur.com/rF6nZko.gif) --- **Language Options** I included two simple scripts that you can apply to these files to do the following (Windows only): 1. Make [Single Audio] Japanese: Throws out *English audio* and *Signs&Songs subtitles* tracks 2. Make [Single Audio] English: Throws out *Japanese audio* and *Dialogue subtitles* tracks To apply these put all the video files into the *Language Options* folder and run the .bat file. *Don't combine them and only use them once together with the base files.* --- **Source** 🗃️ Video (BDMV): **[[Lupin the Nerd]](https://nyaa.si/view/1547478)** 🗃️ JPN Audio (BDMV): **[[Lupin the Nerd]](https://nyaa.si/view/1547478)** 🗃️ ENG Audio (WEB): **[[Yameii]](https://nyaa.si/view/1555193)** 🗃️ Subtitles: **[[Chihiro]](https://nyaa.si/view/1479758)** 💬 *Subtitles Info: [Chihiro]* *Thank you all for making this possible <3* --- **Media Info** 🆔 [Full Mediainfo incl. Encoder Settings](https://pastebin.com/WsFviZmY) ``` General Unique ID : 122625792195225427543036156697613657598 (0x5C40DE56F3FED9704FF5BD6CC87F65FE) Complete name : Life with an Ordinary Guy who Reincarnated into a Total Fantasy Knockout - S01E01.mkv Format : Matroska Format version : Version 4 File size : 424 MiB Duration : 23 min 52 s Overall bit rate : 2 485 kb/s Movie name : Life with an Ordinary Guy who Reincarnated into a Total Fantasy Knockout - S01E01 Writing application : Lavf58.47.100 Writing library : Lavf58.47.100 ErrorDetectionType : Per level 1 Attachments : ADega Serif Bold.otf / Bubbly-Regular.ttf / Burger Extra.ttf / Burukuduk.otf / Delight Candles .ttf / DuniaKita.otf / FreePixel.ttf / Iconic-Bold-trial.ttf / Joyce-Regular.ttf / Keage No Moon.ttf / NozakiDialogue-Bold.otf / NozakiDialogue-BoldItalic.otf / OLDSH__.TTF / PixelOperator-Bold.ttf / retro_computer_personal_use.ttf / Typo Hoop_Bold Demo.otf / arial_0.ttf / trebuc_0.ttf Video ID : 1 Format : HEVC Format/Info : High Efficiency Video Coding Format profile : Main 10@L4@High Codec ID : V_MPEGH/ISO/HEVC Duration : 23 min 52 s Bit rate : 1 965 kb/s Width : 1 920 pixels Height : 1 080 pixels Display aspect ratio : 16:9 Frame rate mode : Variable Frame rate : 23.976 FPS Color space : YUV Chroma subsampling : 4:2:0 Bit depth : 10 bits Bits/(Pixel*Frame) : 0.040 Stream size : 335 MiB (79%) Writing library : x265 3.5+1-f0c1022b6:[Windows][GCC 9.2.0][64 bit] 10bit Encoding settings : <Check Link Above> Default : Yes Forced : No Color range : Limited Color primaries : BT.709 Transfer characteristics : BT.709 Matrix coefficients : BT.709 Audio #1 ID : 2 Format : AAC LC Format/Info : Advanced Audio Codec Low Complexity Codec ID : A_AAC-2 Duration : 23 min 51 s Channel(s) : 2 channels Channel layout : L R Sampling rate : 44.1 kHz Frame rate : 43.066 FPS (1024 SPF) Compression mode : Lossy Title : English Writing library : Lavc58.93.100 aac Language : English Default : Yes Forced : No Audio #2 ID : 3 Format : AAC LC Format/Info : Advanced Audio Codec Low Complexity Codec ID : A_AAC-2 Duration : 23 min 52 s Bit rate : 202 kb/s Channel(s) : 2 channels Channel layout : L R Sampling rate : 48.0 kHz Frame rate : 46.875 FPS (1024 SPF) Compression mode : Lossy Delay relative to video : 23 ms Stream size : 34.5 MiB (8%) Title : Japanese Language : Japanese Default : No Forced : No Text #1 ID : 4 Format : ASS Codec ID : S_TEXT/ASS Codec ID/Info : Advanced Sub Station Alpha Duration : 23 min 51 s Bit rate : 50.8 kb/s Count of elements : 33147 Compression mode : Lossless Stream size : 8.67 MiB (2%) Title : Signs & Songs Writing library : Lavc58.93.100 ssa Language : English Default : No Forced : Yes Text #2 ID : 5 Format : ASS Codec ID : S_TEXT/ASS Codec ID/Info : Advanced Sub Station Alpha Duration : 23 min 51 s Bit rate : 51.0 kb/s Count of elements : 33601 Compression mode : Lossless Stream size : 8.70 MiB (2%) Title : Dialogue Writing library : Lavc58.93.100 ssa Language : English Default : Yes Forced : No Menu 00:00:01.010 : :Intro 00:00:48.040 : :OP 00:02:17.990 : :Episode 00:22:05.980 : :ED 00:23:35.990 : :Preview ```

File list

  • [neoHEVC] Life with an Ordinary Guy who Reincarnated into a Total Fantasy Knockout [Season 1] [BD 1080p x265 HEVC AAC] [Dual Audio]
    • Language Options
      • 1. Make [Single Audio] English.bat (254 Bytes)
      • 2. Make [Single Audio] Japanese.bat (254 Bytes)
      • mkvmerge.exe (9.6 MiB)
      • readme.txt (512 Bytes)
    • Life with an Ordinary Guy who Reincarnated into a Total Fantasy Knockout - S01E01.mkv (424.3 MiB)
    • Life with an Ordinary Guy who Reincarnated into a Total Fantasy Knockout - S01E02.mkv (332.4 MiB)
    • Life with an Ordinary Guy who Reincarnated into a Total Fantasy Knockout - S01E03.mkv (298.0 MiB)
    • Life with an Ordinary Guy who Reincarnated into a Total Fantasy Knockout - S01E04.mkv (334.6 MiB)
    • Life with an Ordinary Guy who Reincarnated into a Total Fantasy Knockout - S01E05.mkv (355.2 MiB)
    • Life with an Ordinary Guy who Reincarnated into a Total Fantasy Knockout - S01E06.mkv (322.4 MiB)
    • Life with an Ordinary Guy who Reincarnated into a Total Fantasy Knockout - S01E07.mkv (301.2 MiB)
    • Life with an Ordinary Guy who Reincarnated into a Total Fantasy Knockout - S01E08.mkv (354.3 MiB)
    • Life with an Ordinary Guy who Reincarnated into a Total Fantasy Knockout - S01E09.mkv (317.3 MiB)
    • Life with an Ordinary Guy who Reincarnated into a Total Fantasy Knockout - S01E10.mkv (364.5 MiB)
    • Life with an Ordinary Guy who Reincarnated into a Total Fantasy Knockout - S01E11.mkv (352.6 MiB)
    • Life with an Ordinary Guy who Reincarnated into a Total Fantasy Knockout - S01E12.mkv (368.5 MiB)
Thanks! pretty nice Isekai anime comedy! Any chance uploading Princess Principal? that anime has a English Dubbed too!

neoborn (uploader)

User
**@BlinkA1** Not a show for me, sorry ![](https://i.imgur.com/k5ZPwDP.gif)
Any plans for Magia Record - Mahou Shoujo Madoka Magica Gaiden S2 and 3 as you did s1 previously