[neoHEVC] Akebi's Sailor Uniform [Season 1] [BD 1080p x265 HEVC AAC] [Dual Audio] Akebi-chan no Sailor-fuku

Category:
Date:
2022-10-06 18:40 UTC
Submitter:
Seeders:
36
Information:
Leechers:
4
File size:
4.1 GiB
Completed:
2695
Info hash:
d9835b3432bf149c281b3f13901381de3ffc87c7
![](https://i.imgur.com/RBlGp48.png) *Come hang out in **[Discord](https://discord.gg/47Q7FdB54e)*** #### **[Akebi's Sailor Uniform [Season 1]](https://myanimelist.net/anime/48553/Akebi-chan_no_Sailor-fuku)** โ–ถ๏ธ **[Trailer](https://www.youtube.com/watch?v=G1Kip31lyMI)** --- **Synopsis** Ever since she was young, Komichi Akebi has always adored sailor uniforms, even going so far as to ask her mother to sew one if she succeeds in getting into her mother's alma mater, Roubai Academy. And thus, when she gets accepted into the prestigious school, Komichi is ecstatic. However, much to her surprise, the middle school no longer uses sailor uniforms as its dress codeโ€”making Komichi stand out from her schoolmates. Despite this, Komichi is granted permission to continue wearing the traditional attire. With renewed confidence, Komichi meets fascinating classmates as they experience school life together. Under the colorful shower of blossoming prospects, an exciting tomorrow awaits them! ![](https://i.imgur.com/8SsoXEK.png) --- **Language Options** I included two simple scripts that you can apply to these files to do the following (Windows only): 1. Make [Single Audio] Japanese: Throws out *English audio* and *Signs&Songs subtitles* tracks 2. Make [Single Audio] English: Throws out *Japanese audio* and *Dialogue subtitles* tracks To apply these put all the video files into the *Language Options* folder and run the .bat file. *Don't combine them and only use them once together with the base files.* --- **Source** ๐Ÿ—ƒ๏ธ Video (BDMV): **[[Hark0n]](https://nyaa.si/view/1524358)** ๐Ÿ—ƒ๏ธ JPN Audio (BDMV): **[[Hark0n]](https://nyaa.si/view/1524358)** ๐Ÿ—ƒ๏ธ ENG Audio (WEB): **[[NanDesuKa]](https://nyaa.si/view/1484244)** ๐Ÿ—ƒ๏ธ Subtitles: **[[Cyan]](https://nyaa.si/view/1526652)** ๐Ÿ’ฌ *Subtitles Info: [Cyan]* *Thank you all for making this possible <3* --- **Media Info** ๐Ÿ†” [Full Mediainfo incl. Encoder Settings](https://pastebin.com/8hHsrZTx) ``` General Unique ID : 266437397193931338237112846886187629638 (0xC871F9E55CB67618EE1E1249B70CFC46) Complete name : Akebi's Sailor Uniform - S01E01.mkv Format : Matroska Format version : Version 4 File size : 300 MiB Duration : 23 min 41 s Overall bit rate : 1 773 kb/s Movie name : Akebi's Sailor Uniform - S01E01 Encoded date : UTC 2022-05-07 19:59:36 Writing application : mkvmerge v57.0.0 ('Till The End') 64-bit Writing library : libebml v1.4.2 + libmatroska v1.6.4 Cover : Yes Attachments : abadi-mt.ttf / AG_Book_Rounded_Bold.ttf / ARLRDBD.TTF / BeautifulEveryTime.ttf / BRUSHTYPE_BOLD.ttf / ConferenceD.TTF / corporate-rounded-bold-webfont.ttf / DK Cover Up.otf / DK Hobgoblin.otf / FONTIN_SANS.OTF / Fontin_Sans_BI.otf / Fontin_Sans_I.otf / Fontin_Sans_R.otf / FOT-MatisseEleganto Pro EB Strp.otf / FOT-TsukuOldMin Pro R Strp.otf / Lato-Regular.ttf / Quicksand-Bold.ttf / Robaga Rounded Bold.otf / Roboto-Medium.ttf / Roboto-Regular.ttf Video ID : 1 Format : HEVC Format/Info : High Efficiency Video Coding Format profile : Main 10@L4@High Codec ID : V_MPEGH/ISO/HEVC Duration : 23 min 41 s Bit rate : 1 510 kb/s Width : 1 920 pixels Height : 1 080 pixels Display aspect ratio : 16:9 Frame rate mode : Constant Frame rate : 23.976 (24000/1001) FPS Color space : YUV Chroma subsampling : 4:2:0 Bit depth : 10 bits Bits/(Pixel*Frame) : 0.030 Stream size : 256 MiB (85%) Writing library : x265 3.5+1-f0c1022b6:[Windows][GCC 9.2.0][64 bit] 10bit Encoding settings : <Check Link Above> Default : Yes Forced : No Color range : Limited Color primaries : BT.709 Transfer characteristics : BT.709 Matrix coefficients : BT.709 Audio #1 ID : 2 Format : AAC LC Format/Info : Advanced Audio Codec Low Complexity Codec ID : A_AAC-2 Duration : 23 min 40 s Bit rate : 128 kb/s Channel(s) : 2 channels Channel layout : L R Sampling rate : 44.1 kHz Frame rate : 43.066 FPS (1024 SPF) Compression mode : Lossy Stream size : 21.7 MiB (7%) Title : English Language : English Default : Yes Forced : No Audio #2 ID : 3 Format : AAC LC Format/Info : Advanced Audio Codec Low Complexity Codec ID : A_AAC-2 Duration : 23 min 41 s Bit rate : 120 kb/s Channel(s) : 2 channels Channel layout : L R Sampling rate : 48.0 kHz Frame rate : 46.875 FPS (1024 SPF) Compression mode : Lossy Stream size : 20.4 MiB (7%) Title : Japanese Language : Japanese Default : No Forced : No Text #1 ID : 4 Format : ASS Codec ID : S_TEXT/ASS Codec ID/Info : Advanced Sub Station Alpha Duration : 21 min 14 s Bit rate : 356 b/s Count of elements : 424 Compression mode : Lossless Stream size : 55.5 KiB (0%) Title : Signs & Songs Language : English Default : No Forced : Yes Text #2 ID : 5 Format : ASS Codec ID : S_TEXT/ASS Codec ID/Info : Advanced Sub Station Alpha Duration : 23 min 19 s Bit rate : 433 b/s Count of elements : 751 Compression mode : Lossless Stream size : 74.0 KiB (0%) Title : Dialogue Language : English Default : Yes Forced : No Menu 00:00:00.000 : :Prelude 00:02:21.010 : :Part A 00:11:55.000 : :Eyecatch 00:12:00.010 : :Part B 00:22:10.020 : :ED ```

File list

  • [neoHEVC] Akebi's Sailor Uniform [Season 1] [BD 1080p x265 HEVC AAC] [Dual Audio]
    • Language Options
      • 1. Make [Single Audio] English.bat (254 Bytes)
      • 2. Make [Single Audio] Japanese.bat (254 Bytes)
      • mkvmerge.exe (9.6 MiB)
      • readme.txt (512 Bytes)
    • Akebi's Sailor Uniform - S01E01.mkv (300.4 MiB)
    • Akebi's Sailor Uniform - S01E02.mkv (313.9 MiB)
    • Akebi's Sailor Uniform - S01E03.mkv (290.6 MiB)
    • Akebi's Sailor Uniform - S01E04.mkv (311.7 MiB)
    • Akebi's Sailor Uniform - S01E05.mkv (322.1 MiB)
    • Akebi's Sailor Uniform - S01E06.mkv (396.4 MiB)
    • Akebi's Sailor Uniform - S01E07.mkv (283.1 MiB)
    • Akebi's Sailor Uniform - S01E08.mkv (320.8 MiB)
    • Akebi's Sailor Uniform - S01E09.mkv (330.9 MiB)
    • Akebi's Sailor Uniform - S01E10.mkv (388.0 MiB)
    • Akebi's Sailor Uniform - S01E11.mkv (396.1 MiB)
    • Akebi's Sailor Uniform - S01E12.mkv (504.4 MiB)
thanks, another awesome release :)
Thank you so much!

neoborn (uploader)

User
![](https://i.imgur.com/4U9UQGe.png)