[Zichz Raws] MegaMan NT Warrior / Rockman.EXE (DVD 480p) [English + Spanish Dub]

Category:
Date:
2022-10-04 20:05 UTC
Submitter:
Seeders:
9
File size:
14.7 GiB
Completed:
405
Info hash:
550094e18be59ae0d9989e51b0e6bfde2dabdccf
All 52 episodes of the MegaMan NT Warrior dub. Also includes the non dubbed episodes with subs from STE Subs. Latin America Spanish dub is included as a second track as well as the Battle Network 4 trailer included on all 13 DVDs. ![MegaMan NT Warrior](https://www.themoviedb.org/t/p/w440_and_h660_face/jbWbGnCVLDs0ADRvg8IiGFc3J5j.jpg "MegaMan NT Warrior") I am not the original creator, I am only uploading. **Credit:** Zichz --- "Here’s something I did for myself, MegaMan NT Warrior from the DVDs! This show is OOP and Capcom doesn’t seem to be itching to release it anytime soon so with the legacy collection coming soon I decided I’d take a crack at it. all episodes come from my personal DVDs that I’ve had for awhile though a couple were replacements for lost ones. As far as I’m aware, this is the first public torrent of the Dub released with DVD raws. Also included is the episodes that weren’t dubbed with subs from STE-Subs with my own personal encodes. The shows dub masters haven’t aged well coming from DVD5 and some episodes having tons of checkerboarding but I did what I could to fix it. Both audio tracks are included with the primary track being the English audio with the Latin America Spanish dub being the secondary track. Finally I’ve included the Battle Network 4 trailer that was included on all 13 DVDs." --- General Unique ID : 196945831862489557415187933497582856412 (0x942A63333DA3B51944FF53D46B0EA8DC) Complete name : [Zichz Raws] MegaMan NT Warrior Episode 01 DVD 480P [31C14EFC].mkv Format : Matroska Format version : Version 4 File size : 355 MiB Duration : 21 min 17 s Overall bit rate : 2 331 kb/s Encoded date : UTC 2022-09-22 22:25:46 Writing application : mkvmerge v62.0.0 ('Apollo') 64-bit Writing library : libebml v1.4.2 + libmatroska v1.6.4 Video ID : 1 Format : AVC Format/Info : Advanced Video Codec Format profile : High 10@L3 Format settings : CABAC / 4 Ref Frames Format settings, CABAC : Yes Format settings, Reference frames : 4 frames Codec ID : V_MPEG4/ISO/AVC Duration : 21 min 17 s Bit rate : 2 007 kb/s Width : 708 pixels Height : 480 pixels Display aspect ratio : 4:3 Frame rate mode : Constant Frame rate : 23.976 (24000/1001) FPS Color space : YUV Chroma subsampling : 4:2:0 Bit depth : 10 bits Scan type : Progressive Bits/(Pixel*Frame) : 0.246 Stream size : 306 MiB (86%) Writing library : x264 core 157 r2969 d4099dd Encoding settings : cabac=1 / ref=3 / deblock=1:0:0 / analyse=0x3:0x113 / me=hex / subme=7 / psy=1 / psy_rd=1.00:0.00 / mixed_ref=1 / me_range=16 / chroma_me=1 / trellis=1 / 8x8dct=1 / cqm=0 / deadzone=21,11 / fast_pskip=1 / chroma_qp_offset=-2 / threads=12 / lookahead_threads=2 / sliced_threads=0 / nr=0 / decimate=1 / interlaced=0 / bluray_compat=0 / constrained_intra=0 / bframes=3 / b_pyramid=2 / b_adapt=1 / b_bias=0 / direct=1 / weightb=1 / open_gop=0 / weightp=2 / keyint=240 / keyint_min=23 / scenecut=40 / intra_refresh=0 / rc_lookahead=40 / rc=crf / mbtree=1 / crf=17.0 / qcomp=0.60 / qpmin=0 / qpmax=81 / qpstep=4 / ip_ratio=1.40 / aq=1:1.00 Default : Yes Forced : No Audio #1 ID : 2 Format : AAC LC Format/Info : Advanced Audio Codec Low Complexity Codec ID : A_AAC-2 Duration : 21 min 17 s Bit rate : 161 kb/s Channel(s) : 2 channels Channel layout : L R Sampling rate : 48.0 kHz Frame rate : 46.875 FPS (1024 SPF) Compression mode : Lossy Stream size : 24.5 MiB (7%) Title : English Dub Track Language : English Default : Yes Forced : No Audio #2 ID : 3 Format : AAC LC Format/Info : Advanced Audio Codec Low Complexity Codec ID : A_AAC-2 Duration : 21 min 17 s Bit rate : 160 kb/s Channel(s) : 2 channels Channel layout : L R Sampling rate : 48.0 kHz Frame rate : 46.875 FPS (1024 SPF) Compression mode : Lossy Stream size : 24.4 MiB (7%) Title : Spanish Dub Track Language : Spanish Default : No Forced : No

File list

  • [Zichz Raws] MegaMan NT Warrior DVD 480P
    • [STE-Subs] Rockman.EXE Episode 26 DVD 480P [258C3C99].mkv (257.5 MiB)
    • [STE-Subs] Rockman.EXE Episode 27 DVD 480P [1F25B01D].mkv (267.8 MiB)
    • [STE-Subs] Rockman.EXE Episode 43 DVD 480P [C0B035F7].mkv (259.3 MiB)
    • [STE-Subs] Rockman.EXE Episode 52 DVD 480P [793E617F].mkv (274.1 MiB)
    • [Zichz Raws] MegaMan Battle Network 4 Trailer DVD 480P [5288917D].mkv (13.4 MiB)
    • [Zichz Raws] MegaMan NT Warrior Episode 01 DVD 480P [31C14EFC].mkv (355.1 MiB)
    • [Zichz Raws] MegaMan NT Warrior Episode 02 DVD 480P [3C297061].mkv (343.0 MiB)
    • [Zichz Raws] MegaMan NT Warrior Episode 03 DVD 480P [B867C8C9].mkv (318.0 MiB)
    • [Zichz Raws] MegaMan NT Warrior Episode 04 DVD 480P [2B2EE9F6].mkv (328.5 MiB)
    • [Zichz Raws] MegaMan NT Warrior Episode 05 DVD 480P [D5E39FB0].mkv (298.0 MiB)
    • [Zichz Raws] MegaMan NT Warrior Episode 06 DVD 480P [AD3F4134].mkv (290.4 MiB)
    • [Zichz Raws] MegaMan NT Warrior Episode 07 DVD 480P [8E71DF04].mkv (285.1 MiB)
    • [Zichz Raws] MegaMan NT Warrior Episode 08 DVD 480P [BE00A368].mkv (300.7 MiB)
    • [Zichz Raws] MegaMan NT Warrior Episode 09 DVD 480P [439D5123].mkv (346.6 MiB)
    • [Zichz Raws] MegaMan NT Warrior Episode 10 DVD 480P [4AFABC5B].mkv (304.7 MiB)
    • [Zichz Raws] MegaMan NT Warrior Episode 11 DVD 480P [DE01B523].mkv (308.0 MiB)
    • [Zichz Raws] MegaMan NT Warrior Episode 12 DVD 480P [36F2C73F].mkv (346.1 MiB)
    • [Zichz Raws] MegaMan NT Warrior Episode 13 DVD 480P [EC2B03C6].mkv (269.1 MiB)
    • [Zichz Raws] MegaMan NT Warrior Episode 14 DVD 480P [70384A2D].mkv (260.5 MiB)
    • [Zichz Raws] MegaMan NT Warrior Episode 15 DVD 480P [DA4D3217].mkv (322.6 MiB)
    • [Zichz Raws] MegaMan NT Warrior Episode 16 DVD 480P [AA6B274C].mkv (256.1 MiB)
    • [Zichz Raws] MegaMan NT Warrior Episode 17 DVD 480P [89F8853A].mkv (211.1 MiB)
    • [Zichz Raws] MegaMan NT Warrior Episode 18 DVD 480P [B0FB77FB].mkv (315.4 MiB)
    • [Zichz Raws] MegaMan NT Warrior Episode 19 DVD 480P [C429A544].mkv (304.7 MiB)
    • [Zichz Raws] MegaMan NT Warrior Episode 20 DVD 480P [B842AF7A].mkv (279.6 MiB)
    • [Zichz Raws] MegaMan NT Warrior Episode 21 DVD 480P [14FE162C].mkv (266.7 MiB)
    • [Zichz Raws] MegaMan NT Warrior Episode 22 DVD 480P [83818895].mkv (329.1 MiB)
    • [Zichz Raws] MegaMan NT Warrior Episode 23 DVD 480P [B54A5954].mkv (325.6 MiB)
    • [Zichz Raws] MegaMan NT Warrior Episode 24 DVD 480P [8EFFC987].mkv (277.0 MiB)
    • [Zichz Raws] MegaMan NT Warrior Episode 25 DVD 480P [8C433433].mkv (257.4 MiB)
    • [Zichz Raws] MegaMan NT Warrior Episode 26 DVD 480P [62392C98].mkv (257.6 MiB)
    • [Zichz Raws] MegaMan NT Warrior Episode 27 DVD 480P [F649D042].mkv (232.9 MiB)
    • [Zichz Raws] MegaMan NT Warrior Episode 28 DVD 480P [4BF4D46A].mkv (212.9 MiB)
    • [Zichz Raws] MegaMan NT Warrior Episode 29 DVD 480P [7F733023].mkv (251.7 MiB)
    • [Zichz Raws] MegaMan NT Warrior Episode 30 DVD 480P [CCF74152].mkv (244.7 MiB)
    • [Zichz Raws] MegaMan NT Warrior Episode 31 DVD 480P [799A0528].mkv (270.7 MiB)
    • [Zichz Raws] MegaMan NT Warrior Episode 32 DVD 480P [DC7BD175].mkv (220.1 MiB)
    • [Zichz Raws] MegaMan NT Warrior Episode 33 DVD 480P [ABF76DC9].mkv (235.1 MiB)
    • [Zichz Raws] MegaMan NT Warrior Episode 34 DVD 480P [36920377].mkv (247.8 MiB)
    • [Zichz Raws] MegaMan NT Warrior Episode 35 DVD 480P [B159F387].mkv (271.9 MiB)
    • [Zichz Raws] MegaMan NT Warrior Episode 36 DVD 480P [3D55B302].mkv (226.5 MiB)
    • [Zichz Raws] MegaMan NT Warrior Episode 37 DVD 480P [CD4BFEFF].mkv (252.4 MiB)
    • [Zichz Raws] MegaMan NT Warrior Episode 38 DVD 480P [F2BCD2F8].mkv (208.5 MiB)
    • [Zichz Raws] MegaMan NT Warrior Episode 39 DVD 480P [8F2F4C96].mkv (233.7 MiB)
    • [Zichz Raws] MegaMan NT Warrior Episode 40 DVD 480P [7F6A9068].mkv (246.3 MiB)
    • [Zichz Raws] MegaMan NT Warrior Episode 41 DVD 480P [3564D464].mkv (274.8 MiB)
    • [Zichz Raws] MegaMan NT Warrior Episode 42 DVD 480P [7627840C].mkv (278.6 MiB)
    • [Zichz Raws] MegaMan NT Warrior Episode 43 DVD 480P [7E70ECB1].mkv (240.9 MiB)
    • [Zichz Raws] MegaMan NT Warrior Episode 44 DVD 480P [C7F846A2].mkv (241.5 MiB)
    • [Zichz Raws] MegaMan NT Warrior Episode 45 DVD 480P [1FB6980B].mkv (253.1 MiB)
    • [Zichz Raws] MegaMan NT Warrior Episode 46 DVD 480P [548309E1].mkv (216.3 MiB)
    • [Zichz Raws] MegaMan NT Warrior Episode 47 DVD 480P [DE25C5B1].mkv (237.6 MiB)
    • [Zichz Raws] MegaMan NT Warrior Episode 48 DVD 480P [E021F352].mkv (217.6 MiB)
    • [Zichz Raws] MegaMan NT Warrior Episode 49 DVD 480P [E5F8B0A6].mkv (242.3 MiB)
    • [Zichz Raws] MegaMan NT Warrior Episode 50 DVD 480P [71478C89].mkv (232.3 MiB)
    • [Zichz Raws] MegaMan NT Warrior Episode 51 DVD 480P [6F3AB370].mkv (221.7 MiB)
    • [Zichz Raws] MegaMan NT Warrior Episode 52 DVD 480P [25121BE5].mkv (212.4 MiB)
Will you work on Axess (Season 2)?
Can Could you make DVDrip at 8bits and FLAC audio? Or instead share the DVDs? That would be better instead.