[BDMV] 攻殻機動隊 Ghost in the Shell Arise Pyrophoric Cult [Movie] [1080p] [TRUEHD] [JP]

Category:
Date:
2022-10-04 09:00 UTC
Submitter:
Seeders:
7
Information:
No information.
Leechers:
0
File size:
23.2 GiB
Completed:
350
Info hash:
cdba6b06a7b833ec24ceeeade98d8938e39b2efc
Audio: jpn Subtitles: eng, chi, jpn ___ ``` Input #0, mpegts, from '00001.m2ts': Duration: 00:46:12.13, start: 4199.000000, bitrate: 39864 kb/s Program 1 Stream #0:0[0x1011]: Video: h264 (High) (HDMV / 0x564D4448), yuv420p(tv, bt709, progressive), 1920x1080 [SAR 1:1 DAR 16:9], 23.98 fps, 23.98 tbr, 90k tbn Stream #0:1[0x1100]: Audio: truehd (AC-3 / 0x332D4341), 48000 Hz, 5.1(side), s32 (24 bit) Stream #0:2[0x1100]: Audio: ac3 (AC-3 / 0x332D4341), 48000 Hz, 5.1(side), fltp, 640 kb/s Stream #0:3[0x1101]: Audio: pcm_bluray (HDMV / 0x564D4448), 48000 Hz, stereo, s32 (24 bit), 2304 kb/s Stream #0:4[0x1200]: Subtitle: hdmv_pgs_subtitle ([144][0][0][0] / 0x0090) Stream #0:5[0x1201]: Subtitle: hdmv_pgs_subtitle ([144][0][0][0] / 0x0090), 1920x1080 Stream #0:6[0x1202]: Subtitle: hdmv_pgs_subtitle ([144][0][0][0] / 0x0090), 1920x1080 ``` ___

File list

  • [BDMV] 攻殻機動隊 Ghost in the Shell Arise Pyrophoric Cult [Movie] [TRUEHD]
    • BDROM
      • BDMV
        • BACKUP
          • CLIPINF
            • 00000.clpi (1.2 KiB)
            • 00001.clpi (19.8 KiB)
            • 00002.clpi (6.9 KiB)
            • 00003.clpi (4.9 KiB)
            • 00004.clpi (1.2 KiB)
            • 00005.clpi (7.4 KiB)
            • 00006.clpi (476 Bytes)
            • 00007.clpi (420 Bytes)
            • 00008.clpi (608 Bytes)
            • 00009.clpi (336 Bytes)
            • 00010.clpi (744 Bytes)
            • 00011.clpi (468 Bytes)
            • 00012.clpi (592 Bytes)
            • 00013.clpi (480 Bytes)
            • 00014.clpi (1.3 KiB)
          • PLAYLIST
            • 00000.mpls (198 Bytes)
            • 00001.mpls (168 Bytes)
            • 00011.mpls (346 Bytes)
            • 00012.mpls (332 Bytes)
            • 00021.mpls (184 Bytes)
            • 00022.mpls (254 Bytes)
            • 00023.mpls (296 Bytes)
            • 00024.mpls (310 Bytes)
            • 00025.mpls (198 Bytes)
            • 00026.mpls (184 Bytes)
            • 00027.mpls (184 Bytes)
            • 00028.mpls (184 Bytes)
            • 00051.mpls (294 Bytes)
            • 00052.mpls (294 Bytes)
          • MovieObject.bdmv (66 Bytes)
          • index.bdmv (144 Bytes)
        • CLIPINF
          • 00000.clpi (1.2 KiB)
          • 00001.clpi (19.8 KiB)
          • 00002.clpi (6.9 KiB)
          • 00003.clpi (4.9 KiB)
          • 00004.clpi (1.2 KiB)
          • 00005.clpi (7.4 KiB)
          • 00006.clpi (476 Bytes)
          • 00007.clpi (420 Bytes)
          • 00008.clpi (608 Bytes)
          • 00009.clpi (336 Bytes)
          • 00010.clpi (744 Bytes)
          • 00011.clpi (468 Bytes)
          • 00012.clpi (592 Bytes)
          • 00013.clpi (480 Bytes)
          • 00014.clpi (1.3 KiB)
        • META
          • DL
            • ARISE_L.jpg (68.6 KiB)
            • ARISE_S.jpg (50.2 KiB)
            • bdmt_eng.xml (535 Bytes)
            • bdmt_jpn.xml (530 Bytes)
        • PLAYLIST
          • 00000.mpls (198 Bytes)
          • 00001.mpls (168 Bytes)
          • 00011.mpls (346 Bytes)
          • 00012.mpls (332 Bytes)
          • 00021.mpls (184 Bytes)
          • 00022.mpls (254 Bytes)
          • 00023.mpls (296 Bytes)
          • 00024.mpls (310 Bytes)
          • 00025.mpls (198 Bytes)
          • 00026.mpls (184 Bytes)
          • 00027.mpls (184 Bytes)
          • 00028.mpls (184 Bytes)
          • 00051.mpls (294 Bytes)
          • 00052.mpls (294 Bytes)
        • STREAM
          • 00000.m2ts (342.6 MiB)
          • 00001.m2ts (12.9 GiB)
          • 00002.m2ts (3.9 GiB)
          • 00003.m2ts (2.7 GiB)
          • 00004.m2ts (431.6 MiB)
          • 00005.m2ts (1.9 GiB)
          • 00006.m2ts (76.9 MiB)
          • 00007.m2ts (14.5 MiB)
          • 00008.m2ts (125.8 MiB)
          • 00009.m2ts (5.0 MiB)
          • 00010.m2ts (231.4 MiB)
          • 00011.m2ts (21.0 MiB)
          • 00012.m2ts (125.6 MiB)
          • 00013.m2ts (70.0 MiB)
          • 00014.m2ts (566.3 MiB)
        • MovieObject.bdmv (66 Bytes)
        • index.bdmv (144 Bytes)
      • CERTIFICATE
        • BACKUP
          • id.bdmv (104 Bytes)
        • id.bdmv (104 Bytes)