[neoHEVC] The Rising of the Shield Hero [Season 2] [BD 1080p x265 HEVC AAC] [Dual Audio] Tate no Yuusha no Nariagari

Category:
Date:
2022-10-03 18:37 UTC
Submitter:
Seeders:
16
Information:
Leechers:
1
File size:
3.6 GiB
Completed:
1294
Info hash:
7c89c20d9780649bd0e8299b4b7f9cf8793e8ed4
![](https://i.imgur.com/RBlGp48.png) *Come hang out in **[Discord](https://discord.gg/47Q7FdB54e)*** #### **[The Rising of the Shield Hero [Season 2]](https://myanimelist.net/anime/40356/Tate_no_Yuusha_no_Nariagari_Season_2)** Notes: . Resampled script . Adjusted main font style . Restyled/retimed OPED and added transition kfx ▶️ **[Trailer](https://www.youtube.com/watch?v=gMZDGyihTyc)** --- **Synopsis** With another Wave happening in a week, Naofumi Iwatani and his party have no time to waste. However, when bat familiars raid Lurolona Village and the Wave countdown comes to a halt, the Four Cardinal Heroes reconvene with the queen, Mirelia Q Melromarc, for a quick briefing. The queen presumes that the odd occurrences are linked to the Spirit Tortoise—a threatening creature that has awakened from its slumber, back to cause havoc once again. A plan to put the Spirit Tortoise to rest is devised—but out of the four men, only the cursed Shield Hero agrees to help. ![](https://i.imgur.com/e9dB9BM.png) --- **Language Options** I included two simple scripts that you can apply to these files to do the following (Windows only): 1. Make [Single Audio] Japanese: Throws out *English audio* and *Signs&Songs subtitles* tracks 2. Make [Single Audio] English: Throws out *Japanese audio* and *Dialogue subtitles* tracks To apply these put all the video files into the *Language Options* folder and run the .bat file. *Don't combine them and only use them once together with the base files.* --- **Source** 🗃️ Video and JPN Audio (BDMV): **[NepBlanc]** 🗃️ ENG Audio (WEB): **[[Yameii]](https://nyaa.si/view/1524074)** 🗃️ Subtitles: **[[Anime Chap]](https://nyaa.si/view/1556392)** 💬 *Subtitles Info: [Anime Chap] Base [Me] Edits, see notes* *Thank you all for making this possible <3* --- **Media Info** 🆔 [Full Mediainfo incl. Encoder Settings](https://pastebin.com/3jzn0wfB) ``` General Unique ID : 240265567829489334324481970353553226565 (0xB4C177154D7601EE4C744655841F3B45) Complete name : The Rising of the Shield Hero - S02E01.mkv Format : Matroska Format version : Version 4 File size : 327 MiB Duration : 23 min 44 s Overall bit rate : 1 924 kb/s Movie name : The Rising of the Shield Hero - S02E01 Writing application : Lavf58.47.100 Writing library : Lavf58.47.100 ErrorDetectionType : Per level 1 Attachments : arial.ttf / arialbd.ttf / comic.ttf / comicbd.ttf / Roboto-Medium.ttf / Roboto-MediumItalic.ttf / times.ttf / timesbd.ttf / trebuc.ttf / trebucbd.ttf / verdana.ttf / verdanab.ttf / Berry Rotunda.ttf / Centurion .ttf / ClearFaceSSI-Bold.TTF / Mermaid1001.ttf Video ID : 1 Format : HEVC Format/Info : High Efficiency Video Coding Format profile : Main 10@L4@High Codec ID : V_MPEGH/ISO/HEVC Duration : 23 min 42 s Bit rate : 1 448 kb/s Width : 1 920 pixels Height : 1 080 pixels Display aspect ratio : 16:9 Frame rate mode : Variable Frame rate : 23.976 FPS Color space : YUV Chroma subsampling : 4:2:0 Bit depth : 10 bits Bits/(Pixel*Frame) : 0.029 Stream size : 245 MiB (75%) Writing library : x265 3.5+1-f0c1022b6:[Windows][GCC 9.2.0][64 bit] 10bit Encoding settings : <Check Link Above> Default : Yes Forced : No Color range : Limited Color primaries : BT.709 Transfer characteristics : BT.709 Matrix coefficients : BT.709 Audio #1 ID : 2 Format : AAC LC Format/Info : Advanced Audio Codec Low Complexity Codec ID : A_AAC-2 Duration : 23 min 41 s Channel(s) : 2 channels Channel layout : L R Sampling rate : 44.1 kHz Frame rate : 43.066 FPS (1024 SPF) Compression mode : Lossy Title : English Writing library : Lavc58.93.100 aac Language : English Default : Yes Forced : No Audio #2 ID : 3 Format : AAC LC Format/Info : Advanced Audio Codec Low Complexity Codec ID : A_AAC-2 Duration : 23 min 42 s Bit rate : 247 kb/s Channel(s) : 2 channels Channel layout : L R Sampling rate : 48.0 kHz Frame rate : 46.875 FPS (1024 SPF) Compression mode : Lossy Delay relative to video : 23 ms Stream size : 41.9 MiB (13%) Title : Japanese Language : Japanese Default : No Forced : No Text #1 ID : 4 Format : ASS Codec ID : S_TEXT/ASS Codec ID/Info : Advanced Sub Station Alpha Duration : 23 min 41 s Bit rate : 1 956 b/s Count of elements : 2045 Compression mode : Lossless Stream size : 321 KiB (0%) Title : Signs & Songs Writing library : Lavc58.93.100 ssa Language : English Default : No Forced : Yes Text #2 ID : 5 Format : ASS Codec ID : S_TEXT/ASS Codec ID/Info : Advanced Sub Station Alpha Duration : 23 min 44 s Bit rate : 3 566 b/s Count of elements : 4160 Compression mode : Lossless Stream size : 618 KiB (0%) Title : Dialogue Writing library : Lavc58.93.100 ssa Language : English Default : Yes Forced : No Menu 00:00:00.000 : :Intro 00:04:10.980 : :Episode 00:22:06.970 : :ED 00:23:35.980 : :Preview ```

File list

  • [neoHEVC] The Rising of the Shield Hero [Season 2] [BD 1080p x265 HEVC AAC] [Dual Audio]
    • Language Options
      • 1. Make [Single Audio] English.bat (254 Bytes)
      • 2. Make [Single Audio] Japanese.bat (254 Bytes)
      • mkvmerge.exe (9.6 MiB)
      • readme.txt (512 Bytes)
    • The Rising of the Shield Hero - S02E01.mkv (326.6 MiB)
    • The Rising of the Shield Hero - S02E02.mkv (219.3 MiB)
    • The Rising of the Shield Hero - S02E03.mkv (354.0 MiB)
    • The Rising of the Shield Hero - S02E04.mkv (239.9 MiB)
    • The Rising of the Shield Hero - S02E05.mkv (255.6 MiB)
    • The Rising of the Shield Hero - S02E06.mkv (399.1 MiB)
    • The Rising of the Shield Hero - S02E07.mkv (266.2 MiB)
    • The Rising of the Shield Hero - S02E08.mkv (250.8 MiB)
    • The Rising of the Shield Hero - S02E09.mkv (241.2 MiB)
    • The Rising of the Shield Hero - S02E10.mkv (237.9 MiB)
    • The Rising of the Shield Hero - S02E11.mkv (306.7 MiB)
    • The Rising of the Shield Hero - S02E12.mkv (370.8 MiB)
    • The Rising of the Shield Hero - S02E13.mkv (258.5 MiB)
S2 was a complete crap btw

neoborn (uploader)

User
**@Gradius** Aaw maaan :(
I was surprised to see the BD encode of S2 since I didn't see the BDMV posted here . Thank you neoborn as always.

neoborn (uploader)

User
**@shanks2020** Someone invited old neo into private trackers. Found it on there but I'm sure it will end up here eventually. ![](https://i.imgur.com/EGiVmjl.png)
🌸.(´◡`)🌸. Thank you very much.
thanks a lot, still it pains me how bad S2 is compared to S1 :(
Frames in episode 01 are choppy, there are some missing frames, other are doubled. I didn't checked other episodes. I downloaded other group release, and there is no problems.

neoborn (uploader)

User
**@Jun-Tao** Could you give an exact timestamp/frame where I can check this to see what's up??
@neoborn You can start watching from 17:10 till the end of ep 01, from that part scenes start looking choppy, I cheked in video converter, and some frames are missing, other ones doubled in place of those missing, so it makes animation choppy. I took Anime Time release, and there isn't any problem with animation smoothness in their release.
Nice. Neo created S2 but not S1... >_< Neo could create a batch of S1 to S3. :smug: