[MiraiAnime] Ghost in the Shell: The New Movie (2015) [BD 1080p x265 HEVC OPUS] [Dual-Audio] Shin

Category:
Date:
2022-09-30 10:00 UTC
Submitter:
Seeders:
12
Information:
Leechers:
1
File size:
1.8 GiB
Completed:
872
Info hash:
c783fd58c077fe002fa192f43c6e7b241d8a1a70
|![](https://i.imgur.com/9EbQwej.jpg)| | :-: | | [**Koukaku Kidoutai: Shin Movie \| Ghost in the Shell: The New Movie - MyAnimeList.net**](https://myanimelist.net/anime/27411/Koukaku_Kidoutai__Shin_Movie) | ___ #### **Information:** Slightly restyled dialogue lines. Chapters are from the Blu-Ray. ___ ##### For requests, questions or ddl, join my (small) discord here: **https://discord.gg/8n7H3ArdCW** ##### I highly suggest you to use [mpv](https://mpv.io/) for playback. ___ **Summary:** * edited subtitle styling * all audio tracks were encoded to OPUS (libopus) * video was encoded to HEVC (libx265, crf 18, yuv420p10le) * naming scheme matches TheTvDB.com (for plex/radarr/emby/jellyfin/kodi compatibility) |Track-Type | Title | Attributes | |:-------------:|:-------------:|:-----:| |video|[BDMV] Japanese|x265 HEVC 10bit 23.976FPS 1920x1080| |audio|[BDMV] Japanese|48.0kHz 5.1 OPUS| |audio|[BDMV] English|48.0kHz 5.1 OPUS (**default**)| |subtitles|[Commie] English|ass| |subtitles|[Commie] Sign&Songs|ass (**default**)| |chapters| ___ #### **Source:** [**BDMV**](https://nyaa.si/view/1588083) - video, audio, chapters (US) [**Commie**](https://nyaa.si/view/795634 "Commie's release") - subtitles ___ #### **Screenshots:** |Screenshot 1|Screenshot 2|Screenshot 3|Screenshot 4| |:-:|:-:|:-:|:-:| |[![](https://i.imgur.com/VY0Lizo.png)](https://i.ibb.co/whKV8GD/Screenshot-1.png)|[![](https://i.imgur.com/7qYo4H1.png)](https://i.ibb.co/N9xc0Sq/Screenshot-2.png)|[![](https://i.imgur.com/HE5XcrY.png)](https://i.ibb.co/M2vJVbs/Screenshot-3.png)|[![](https://i.imgur.com/Yn6CSDF.png)](https://i.ibb.co/x88wyn0/Screenshot-4.png)| ___ #### **FFprobe:** ``` ffprobe version 5.1.2 Copyright (c) 2007-2022 the FFmpeg developers built with gcc 12.2.0 (GCC) configuration: ... libavutil 57. 28.100 / 57. 28.100 libavcodec 59. 37.100 / 59. 37.100 libavformat 59. 27.100 / 59. 27.100 libavdevice 59. 7.100 / 59. 7.100 libavfilter 8. 44.100 / 8. 44.100 libswscale 6. 7.100 / 6. 7.100 libswresample 4. 7.100 / 4. 7.100 libpostproc 56. 6.100 / 56. 6.100 Input #0, matroska,webm, from 'Ghost in the Shell The New Movie (2015).mkv': Metadata: creation_time : 2022-09-29T22:12:27.000000Z ENCODER : Lavf59.27.100 Duration: 01:39:31.06, start: -0.007000, bitrate: 2645 kb/s Chapters: Chapter #0:0: start 0.000000, end 328.536533 Metadata: title : Chapter 01 . . . Chapter #0:27: start 6229.181289, end 6229.181289 Metadata: title : Chapter 28 Stream #0:0(jpn): Video: hevc (Main 10), yuv420p10le(tv), 1920x1080 [SAR 1:1 DAR 16:9], 23.98 fps, 23.98 tbr, 1k tbn Metadata: title : [BDMV] Japanese ENCODER : Lavc59.37.100 libx265 BPS : 2182341 DURATION : 01:39:31.049000000 NUMBER_OF_FRAMES: 143162 NUMBER_OF_BYTES : 1628858810 _STATISTICS_WRITING_APP: mkvmerge v70.0.0 ('Caught A Lite Sneeze') 64-bit _STATISTICS_WRITING_DATE_UTC: 2022-09-29 22:12:27 _STATISTICS_TAGS: BPS DURATION NUMBER_OF_FRAMES NUMBER_OF_BYTES Stream #0:1(jpn): Audio: opus, 48000 Hz, 5.1, fltp Metadata: title : [BDMV] Japanese ENCODER : Lavc59.37.100 libopus BPS : 230352 DURATION : 01:39:29.972000000 NUMBER_OF_FRAMES: 298499 NUMBER_OF_BYTES : 171899379 _STATISTICS_WRITING_APP: mkvmerge v70.0.0 ('Caught A Lite Sneeze') 64-bit _STATISTICS_WRITING_DATE_UTC: 2022-09-29 22:12:27 _STATISTICS_TAGS: BPS DURATION NUMBER_OF_FRAMES NUMBER_OF_BYTES Stream #0:2(eng): Audio: opus, 48000 Hz, 5.1, fltp (default) Metadata: title : [BDMV] English ENCODER : Lavc59.37.100 libopus BPS : 229185 DURATION : 01:39:29.638000000 NUMBER_OF_FRAMES: 298482 NUMBER_OF_BYTES : 171019227 _STATISTICS_WRITING_APP: mkvmerge v70.0.0 ('Caught A Lite Sneeze') 64-bit _STATISTICS_WRITING_DATE_UTC: 2022-09-29 22:12:27 _STATISTICS_TAGS: BPS DURATION NUMBER_OF_FRAMES NUMBER_OF_BYTES Stream #0:3(eng): Subtitle: ass Metadata: title : [Commie] Dialogue BPS : 127 DURATION : 01:36:17.980000000 NUMBER_OF_FRAMES: 1121 NUMBER_OF_BYTES : 92009 _STATISTICS_WRITING_APP: mkvmerge v70.0.0 ('Caught A Lite Sneeze') 64-bit _STATISTICS_WRITING_DATE_UTC: 2022-09-29 22:12:27 _STATISTICS_TAGS: BPS DURATION NUMBER_OF_FRAMES NUMBER_OF_BYTES Stream #0:4(eng): Subtitle: ass (default) Metadata: title : [Commie] Sign&Songs BPS : 109 DURATION : 00:37:06.020000000 NUMBER_OF_FRAMES: 131 NUMBER_OF_BYTES : 30332 _STATISTICS_WRITING_APP: mkvmerge v70.0.0 ('Caught A Lite Sneeze') 64-bit _STATISTICS_WRITING_DATE_UTC: 2022-09-29 22:12:27 _STATISTICS_TAGS: BPS DURATION NUMBER_OF_FRAMES NUMBER_OF_BYTES Stream #0:5: Attachment: ttf Metadata: filename : LT_italic.ttf mimetype : application/x-truetype-font Stream #0:6: Attachment: ttf Metadata: filename : Tangerine_Bold.ttf mimetype : application/x-truetype-font Stream #0:7: Attachment: ttf Metadata: filename : Mermaid1001.ttf mimetype : application/x-truetype-font Stream #0:8: Attachment: ttf Metadata: filename : FRADM.ttf mimetype : application/x-truetype-font Stream #0:9: Attachment: ttf Metadata: filename : framd.ttf mimetype : application/x-truetype-font ``` *** #### **Many thanks to [Commie](https://nyaa.si/user/Commie) for their great contributions!** ___ If you find anything that seems out of the ordinary, just post a comment or in my discord and I'll take a look at it.

File list

  • Ghost in the Shell The New Movie (2015).mkv (1.8 GiB)
thanks for making Japanese the track 1 <3
Thank you! (^_^)