[MiraiAnime] Ghost in the Shell: Arise - Border(s) (2013-2015) [Movies 1-5 + EXTRA] [BD 1080p x265 HEVC OPUS] [Dual-Audio] [ENG-SUB] Koukaku Kidoutai Ghost Pain Whispers Tears Stands Alone Pyrophoric Cult

Category:
Date:
2022-09-30 10:00 UTC
Submitter:
Seeders:
17
Information:
Leechers:
2
File size:
7.7 GiB
Completed:
1371
Info hash:
f41aecf4c520faab2ef25bcc65d7b36efdbc9425
|![](https://i.imgur.com/qNUgxlt.jpg)| | :-: | | [**Koukaku Kidoutai Arise: Ghost in the Shell - Border:1 Ghost Pain - MyAnimeList.net**](https://myanimelist.net/anime/17187/Koukaku_Kidoutai_Arise__Ghost_in_the_Shell_-_Border_1_Ghost_Pain) | | [**Koukaku Kidoutai Arise: Ghost in the Shell - Border:2 Ghost Whispers - MyAnimeList.net**](https://myanimelist.net/anime/19191/Koukaku_Kidoutai_Arise__Ghost_in_the_Shell_-_Border_2_Ghost_Whispers) | | [**Koukaku Kidoutai Arise: Ghost in the Shell - Border:3 Ghost Tears - MyAnimeList.net**](https://myanimelist.net/anime/19193/Koukaku_Kidoutai_Arise__Ghost_in_the_Shell_-_Border_3_Ghost_Tears) | | [**Koukaku Kidoutai Arise: Ghost in the Shell - Border:4 Ghost Stands Alone - MyAnimeList.net**](https://myanimelist.net/anime/19195/Koukaku_Kidoutai_Arise__Ghost_in_the_Shell_-_Border_4_Ghost_Stands_Alone) | | [**Koukaku Kidoutai Arise: Ghost in the Shell - Border:5 Pyrophoric Cult \| Alternative Architecture (EP:9-10) - MyAnimeList.net**](https://myanimelist.net/anime/29325/Koukaku_Kidoutai_Arise__Alternative_Architecture) | ___ #### **Information:** Dialogue lines are slighty restyled. Those OP/ED's which have been translated, got their subtitle tracks. Border 5 / Pyrophoric Cult is doesn't have english audio. * and yes, its literally EP9,10 from Alternative Architecture with only one OP/ED. ___ ##### For requests, questions or ddl, join my (small) discord here: **https://discord.gg/8n7H3ArdCW** ##### I highly suggest you to use [mpv](https://mpv.io/) for playback. ___ **Changelog:** * edited subtitle styling * added a few signs * audio tracks 1 and 2 were encoded to OPUS (libopus) * video was encoded to HEVC (libx265, crf 20, yuv420p10le) * naming scheme matches TheTVDB.com (for plex/radarr/emby/jellyfin/kodi compatibility) |Track-Type | Title | Attributes | |:-------------:|:-------------:|:-----:| |video|[BDMV] Japanese|x265 HEVC 10bit 23.976FPS 1920x1080| |audio|[BDMV] Japanese|48.0kHz 5.1 OPUS| |audio|[BDMV] English|48.0kHz 5.1 OPUS (**default**)| |subtitles|[Commie] English|ass| |subtitles|[Commie] Sign&Songs|ass (**default**)| |chapters| **Note:** Border 2 has a mislabeled third audio track which is isn't commentary, but just a stereo english-audio track. ___ #### **Source:** [**BDMV**](https://nyaa.si/view/846375) - Border (1-4) - video, audio (US) [**BDMV**](https://nyaa.si/view/1586181) - Border 5 - video, audio, chapters [**Commie**](https://nyaa.si/?f=0&c=0_0&q=arise%7Cnew%7Calternative+ghost+in+the+shell+commie+1080p) - subtitles, chapters (Border 1-4) ___ #### **Screenshots:** |Screenshot 1|Screenshot 2|Screenshot 3|Screenshot 4| |:-:|:-:|:-:|:-:| |[![](https://i.imgur.com/Ewtei5x.png)](https://i.ibb.co/kJT4NM6/Screenshot-1.png)|[![](https://i.imgur.com/wjX80bz.png)](https://i.ibb.co/0sSrh8m/Screenshot-2.png)|[![](https://i.imgur.com/Kie1pE6.png)](https://i.ibb.co/whfScvL/Screenshot-3.png)|[![](https://i.imgur.com/NtIZRfv.png)](https://i.ibb.co/dKj61Hh/Screenshot-4.png)| ___ #### **FFprobe:** ``` ffprobe version 5.1.2 Copyright (c) 2007-2022 the FFmpeg developers built with gcc 12.2.0 (GCC) configuration: ... libavutil 57. 28.100 / 57. 28.100 libavcodec 59. 37.100 / 59. 37.100 libavformat 59. 27.100 / 59. 27.100 libavdevice 59. 7.100 / 59. 7.100 libavfilter 8. 44.100 / 8. 44.100 libswscale 6. 7.100 / 6. 7.100 libswresample 4. 7.100 / 4. 7.100 libpostproc 56. 6.100 / 56. 6.100 Input #0, matroska,webm, from 'Ghost in the Shell Arise - Border 1 - Ghost Pain (2013).mkv': Metadata: creation_time : 2022-09-29T21:35:06.000000Z ENCODER : Lavf59.27.100 Duration: 00:58:05.55, start: -0.007000, bitrate: 2280 kb/s Chapters: Chapter #0:0: start 0.033000, end 99.830000 Metadata: title : Intro Chapter #0:1: start 99.830000, end 178.950000 Metadata: title : OP Chapter #0:2: start 178.950000, end 3183.370000 Metadata: title : Movie Chapter #0:3: start 3183.370000, end 3418.100000 Metadata: title : ED Chapter #0:4: start 3418.100000, end 3462.190000 Metadata: title : Outro Chapter #0:5: start 3462.190000, end 3485.538000 Metadata: title : Preview Stream #0:0(jpn): Video: hevc (Main 10), yuv420p10le(tv), 1920x1080 [SAR 1:1 DAR 16:9], 23.98 fps, 23.98 tbr, 1k tbn Metadata: title : [BDMV] Japanese ENCODER : Lavc59.37.100 libx265 BPS : 1816022 DURATION : 00:58:05.524000000 NUMBER_OF_FRAMES: 83569 NUMBER_OF_BYTES : 791223574 _STATISTICS_WRITING_APP: mkvmerge v70.0.0 ('Caught A Lite Sneeze') 64-bit _STATISTICS_WRITING_DATE_UTC: 2022-09-29 21:35:06 _STATISTICS_TAGS: BPS DURATION NUMBER_OF_FRAMES NUMBER_OF_BYTES Stream #0:1(jpn): Audio: opus, 48000 Hz, 5.1, fltp Metadata: title : [BDMV] Japanese ENCODER : Lavc59.37.100 libopus BPS : 228309 DURATION : 00:58:05.532000000 NUMBER_OF_FRAMES: 174277 NUMBER_OF_BYTES : 99472636 _STATISTICS_WRITING_APP: mkvmerge v70.0.0 ('Caught A Lite Sneeze') 64-bit _STATISTICS_WRITING_DATE_UTC: 2022-09-29 21:35:06 _STATISTICS_TAGS: BPS DURATION NUMBER_OF_FRAMES NUMBER_OF_BYTES Stream #0:2(eng): Audio: opus, 48000 Hz, 5.1, fltp (default) Metadata: title : [BDMV] English ENCODER : Lavc59.37.100 libopus BPS : 224907 DURATION : 00:58:05.532000000 NUMBER_OF_FRAMES: 174277 NUMBER_OF_BYTES : 97990144 _STATISTICS_WRITING_APP: mkvmerge v70.0.0 ('Caught A Lite Sneeze') 64-bit _STATISTICS_WRITING_DATE_UTC: 2022-09-29 21:35:06 _STATISTICS_TAGS: BPS DURATION NUMBER_OF_FRAMES NUMBER_OF_BYTES Stream #0:3(eng): Subtitle: ass Metadata: title : [Commie] Dialogue BPS : 383 DURATION : 00:56:59.620000000 NUMBER_OF_FRAMES: 1613 NUMBER_OF_BYTES : 164058 _STATISTICS_WRITING_APP: mkvmerge v70.0.0 ('Caught A Lite Sneeze') 64-bit _STATISTICS_WRITING_DATE_UTC: 2022-09-29 21:35:06 _STATISTICS_TAGS: BPS DURATION NUMBER_OF_FRAMES NUMBER_OF_BYTES Stream #0:4(eng): Subtitle: ass (default) Metadata: title : [Commie] Sign&Songs BPS : 388 DURATION : 00:45:02.450000000 NUMBER_OF_FRAMES: 1091 NUMBER_OF_BYTES : 131353 _STATISTICS_WRITING_APP: mkvmerge v70.0.0 ('Caught A Lite Sneeze') 64-bit _STATISTICS_WRITING_DATE_UTC: 2022-09-29 21:35:06 _STATISTICS_TAGS: BPS DURATION NUMBER_OF_FRAMES NUMBER_OF_BYTES Stream #0:5: Attachment: ttf Metadata: filename : MankSans-Medium.ttf mimetype : application/x-truetype-font Stream #0:6: Attachment: ttf Metadata: filename : LT_italic.ttf mimetype : application/x-truetype-font Stream #0:7: Attachment: ttf Metadata: filename : ebrima.ttf mimetype : application/x-truetype-font Stream #0:8: Attachment: none Metadata: filename : cambria.ttc mimetype : application/x-truetype-collection Stream #0:9: Attachment: ttf Metadata: filename : PermanentMarker.ttf mimetype : application/x-truetype-font Stream #0:10: Attachment: ttf Metadata: filename : CWDRKAGE.ttf mimetype : application/x-truetype-font Stream #0:11: Attachment: ttf Metadata: filename : BlowholeBB.otf mimetype : application/x-font-opentype Stream #0:12: Attachment: ttf Metadata: filename : sharpie_stylie.ttf mimetype : application/x-truetype-font ``` *** #### **Many thanks to [NekoBDMV](https://nyaa.si/?f=0&c=0_0&q=NekoBDMV) and [Commie](https://nyaa.si/user/Commie) for keeping this amazing show alive!** ___ If you find anything that seems out of the ordinary, just post a comment or in my discord and I'll take a look at it.

File list

  • Ghost in the Shell Arise - Border(s) (2013-2015) [Movies 1-5] [BD 1080p HEVC OPUS] [Dual-Audio]
    • EXTRA
      • Ghost in the Shell Arise - Border 1 - Ghost Pain (2013) - OP.mkv (18.2 MiB)
      • Ghost in the Shell Arise - Border 2 - Ghost Whispers (2013) - ED.mkv (307.8 MiB)
      • Ghost in the Shell Arise - Border 2 - Ghost Whispers (2013) - OP.mkv (45.8 MiB)
      • Ghost in the Shell Arise - Border 3 - Ghost Tears (2014) - ED.mkv (176.6 MiB)
      • Ghost in the Shell Arise - Border 3 - Ghost Tears (2014) - OP.mkv (95.6 MiB)
      • Ghost in the Shell Arise - Border 4 - Ghost Stands Alone (2014) - OP.mkv (70.0 MiB)
    • Ghost in the Shell Arise - Border 1 - Ghost Pain (2013).mkv (947.5 MiB)
    • Ghost in the Shell Arise - Border 2 - Ghost Whispers (2013).mkv (1.7 GiB)
    • Ghost in the Shell Arise - Border 3 - Ghost Tears (2014).mkv (1.0 GiB)
    • Ghost in the Shell Arise - Border 4 - Ghost Stands Alone (2014).mkv (2.0 GiB)
    • Ghost in the Shell Arise - Border 5 - Pyrophoric Cult (2015).mkv (1.3 GiB)