[MiraiAnime] Ghost in the Shell: Stand Alone Complex - Solid State Society (2007) [BD 1080p x265 HEVC OPUS] [Dual-Audio] S.A.C Koukaku Kidoutai

Category:
Date:
2022-09-30 10:00 UTC
Submitter:
Seeders:
20
Information:
Leechers:
1
File size:
2.3 GiB
Completed:
1504
Info hash:
a1e27167e3a6f9909abbf021eed70a38e181be81
|![](https://i.imgur.com/tadKsa6.jpg)| | :-: | | [**Koukaku Kidoutai: Stand Alone Complex - Solid State Society \| Ghost in the Shell - MyAnimeList.net**](https://myanimelist.net/anime/1566/Koukaku_Kidoutai__Stand_Alone_Complex_-_Solid_State_Society) | ___ ##### For requests, questions or ddl, join my (small) discord here: **https://discord.gg/8n7H3ArdCW** ##### I highly suggest you to use [mpv](https://mpv.io/) for playback. ___ **Changelog:** * edited subtitle styling * added a few signs * audio tracks 1 and 2 were encoded to OPUS (libopus) * video was encoded to HEVC (libx265, crf 20, yuv420p10le) * naming scheme matches TheTVDB.com (for plex/radarr/emby/jellyfin/kodi compatibility) |Track-Type | Title | Attributes | |:-------------:|:-------------:|:-----:| |video|[BDMV] Japanese|x265 HEVC 10bit 23.976FPS 1920x1080 2D| |audio|[BDMV] Japanese|48.0kHz 5.1 OPUS| |audio|[philosophy-raws] English|48.0kHz 5.1 OPUS (**default**)| |audio|[BDMV] Japanese Commentary|48.0kHz stereo AC-3| |subtitles|[MiraiAnime] English|ass| |subtitles|[MiraiAnime] Sign&Songs|ass (**default**)| |chapters| ___ #### **Source:** [**BDMV**](https://nyaa.si/view/1359971) - video, audio [**3xR**](https://nyaa.si/view/233817 "3xR's release") - subtitles, chapters [**philosophy-raws**](https://nyaa.si/view/401512) - eng audio ___ #### **Screenshots:** |Screenshot 1|Screenshot 2|Screenshot 3|Screenshot 4| |:-:|:-:|:-:|:-:| |[![](https://i.imgur.com/t64fpfi.png)](https://i.ibb.co/7r61M1t/Screenshot-1.png)|[![](https://i.imgur.com/6XyVWS2.png)](https://i.ibb.co/3c7Srtm/Screenshot-2.png)|[![](https://i.imgur.com/9uUO94N.png)](https://i.ibb.co/RcPx42J/Screenshot-3.png)|[![](https://i.imgur.com/sORkWLT.png)](https://i.ibb.co/8zf3M9F/Screenshot-4.png)| ___ #### **FFprobe:** ``` ffprobe version 5.1.2 Copyright (c) 2007-2022 the FFmpeg developers built with gcc 12.2.0 (GCC) configuration: ... libavutil 57. 28.100 / 57. 28.100 libavcodec 59. 37.100 / 59. 37.100 libavformat 59. 27.100 / 59. 27.100 libavdevice 59. 7.100 / 59. 7.100 libavfilter 8. 44.100 / 8. 44.100 libswscale 6. 7.100 / 6. 7.100 libswresample 4. 7.100 / 4. 7.100 libpostproc 56. 6.100 / 56. 6.100 Input #0, matroska,webm, from 'Ghost in the Shell Stand Alone Complex - Solid State Society (2007).mkv': Metadata: creation_time : 2022-09-29T22:54:57.000000Z ENCODER : Lavf59.27.100 Duration: 01:48:46.52, start: -0.007000, bitrate: 3082 kb/s Chapters: Chapter #0:0: start 0.000000, end 328.537000 Metadata: title : Death of Colonel Ka Gael Chapter #0:1: start 328.537000, end 419.044000 . . . Chapter #0:27: start 6229.181000, end 6526.508000 Metadata: title : Ending Stream #0:0(jpn): Video: hevc (Main 10), yuv420p10le(tv), 1920x1080, SAR 1:1 DAR 16:9, 23.98 fps, 23.98 tbr, 1k tbn Metadata: title : [BDMV] Japanese ENCODER : Lavc59.37.100 libx265 BPS : 1730911 DURATION : 01:48:40.014000000 NUMBER_OF_FRAMES: 156324 NUMBER_OF_BYTES : 1410696009 _STATISTICS_WRITING_APP: mkvmerge v70.0.0 ('Caught A Lite Sneeze') 64-bit _STATISTICS_WRITING_DATE_UTC: 2022-09-29 22:54:57 _STATISTICS_TAGS: BPS DURATION NUMBER_OF_FRAMES NUMBER_OF_BYTES Stream #0:1(jpn): Audio: opus, 48000 Hz, 5.1, fltp Metadata: title : [BDMV] Japanese ENCODER : Lavc59.37.100 libopus BPS : 226224 DURATION : 01:48:40.022000000 NUMBER_OF_FRAMES: 326002 NUMBER_OF_BYTES : 184373861 _STATISTICS_WRITING_APP: mkvmerge v70.0.0 ('Caught A Lite Sneeze') 64-bit _STATISTICS_WRITING_DATE_UTC: 2022-09-29 22:54:57 _STATISTICS_TAGS: BPS DURATION NUMBER_OF_FRAMES NUMBER_OF_BYTES Stream #0:2(eng): Audio: opus, 48000 Hz, 5.1, fltp (default) Metadata: title : [philosophy-raws] English ENCODER_OPTIONS : --bitrate 512k ENCODER : Lavf59.9.102 BPS : 448730 DURATION : 01:48:34.515000000 NUMBER_OF_FRAMES: 325726 NUMBER_OF_BYTES : 365407792 _STATISTICS_WRITING_APP: mkvmerge v70.0.0 ('Caught A Lite Sneeze') 64-bit _STATISTICS_WRITING_DATE_UTC: 2022-09-29 22:54:57 _STATISTICS_TAGS: BPS DURATION NUMBER_OF_FRAMES NUMBER_OF_BYTES Stream #0:3(jpn): Audio: ac3, 48000 Hz, stereo, fltp, 640 kb/s (default) Metadata: title : [BDMV] Japanese Commentary BPS : 640000 DURATION : 01:48:40.032000000 NUMBER_OF_FRAMES: 203751 NUMBER_OF_BYTES : 521602560 _STATISTICS_WRITING_APP: mkvmerge v70.0.0 ('Caught A Lite Sneeze') 64-bit _STATISTICS_WRITING_DATE_UTC: 2022-09-29 22:54:57 _STATISTICS_TAGS: BPS DURATION NUMBER_OF_FRAMES NUMBER_OF_BYTES Stream #0:4(jpn): Subtitle: ass Metadata: title : [MiraiAnime] Dialogue BPS : 132 DURATION : 01:48:10.910000000 NUMBER_OF_FRAMES: 1241 NUMBER_OF_BYTES : 107708 _STATISTICS_WRITING_APP: mkvmerge v70.0.0 ('Caught A Lite Sneeze') 64-bit _STATISTICS_WRITING_DATE_UTC: 2022-09-29 22:54:57 _STATISTICS_TAGS: BPS DURATION NUMBER_OF_FRAMES NUMBER_OF_BYTES Stream #0:5(eng): Subtitle: ass (default) Metadata: title : [MiraiAnime] Sign&Songs BPS : 31 DURATION : 01:47:11.410000000 NUMBER_OF_FRAMES: 180 NUMBER_OF_BYTES : 24986 _STATISTICS_WRITING_APP: mkvmerge v70.0.0 ('Caught A Lite Sneeze') 64-bit _STATISTICS_WRITING_DATE_UTC: 2022-09-29 22:54:57 _STATISTICS_TAGS: BPS DURATION NUMBER_OF_FRAMES NUMBER_OF_BYTES Stream #0:6: Attachment: ttf Metadata: filename : LT_italic.ttf mimetype : application/x-truetype-font Stream #0:7: Attachment: ttf Metadata: filename : AdobeHeitiStd_Regular.otf mimetype : application/x-font-opentype Stream #0:8: Attachment: ttf Metadata: filename : ACaslon_Regular.otf mimetype : application/x-font-opentype Stream #0:9: Attachment: ttf Metadata: filename : AdobeKaitiStd_Regular.otf mimetype : application/x-font-opentype Stream #0:10: Attachment: ttf Metadata: filename : aparaj.ttf mimetype : application/x-truetype-font Stream #0:11: Attachment: ttf Metadata: filename : GOTHICB.ttf mimetype : application/x-truetype-font Stream #0:12: Attachment: ttf Metadata: filename : fansubBlock.ttf mimetype : application/x-truetype-font Stream #0:13: Attachment: ttf Metadata: filename : 37456_TERMINAL.ttf mimetype : application/x-truetype-font ``` *** #### **Many thanks to [Anonymous](https://nyaa.si/view/1359971), [3xR](https://nyaa.si/?f=0&c=0_0&q="3xr") and [philosophy-raws](https://nyaa.si/?f=0&c=0_0&q=philosophy-raws) for keeping this amazing show alive!** ___ If you find anything that seems out of the ordinary, just post a comment or in my discord and I'll take a look at it.

File list

  • Ghost in the Shell Stand Alone Complex - Solid State Society (2007).mkv (2.3 GiB)

ThatWaxEllo (uploader)

User
**@Scoobz:** I do seed rn and have a connection to one peer (17%). If this isn't you, maybe check if portforwarding is activated. Besides, you can find a ddl for this on my discord server.