[neoHEVC] The Executioner and Her Way of Life [Season 1] [BD 1080p x265 HEVC AAC] [Dual Audio] Shokei Shoujo no Virgin Road

Category:
Date:
2022-09-28 18:41 UTC
Submitter:
Seeders:
10
Information:
Leechers:
2
File size:
4.4 GiB
Completed:
852
Info hash:
fd99e60f78f01e08c894828245db87025fc47fde
![](https://i.imgur.com/RBlGp48.png) *Come hang out in **[Discord](https://discord.gg/47Q7FdB54e)*** #### **[The Executioner and Her Way of Life [Season 1]](https://myanimelist.net/anime/47162/Shokei_Shoujo_no_Virgin_Road)** โ–ถ๏ธ **[Trailer](https://www.youtube.com/watch?v=2k1IWguG6w8)** --- **Synopsis** Average student Mutou Mitsuki suddenly finds himself transported to another realm. Summoned by the king of this world for the remarkable power he is supposed to possess, Mutou is thrown out when it appears that he lacks a "Special Concept." Moping about, he encounters a priestess named Menou who explains that Japanese people like him are known as Lost Ones, and such individuals never fail to have Special Concepts. Menou elaborates that she is part of a church that helps abandoned Lost Ones integrate into society. She invites him to spend the night at her church, where the two can probe the nature of his ability. Eventually, they discover that Mutou's Special Concept is actually incredibly powerful and dangerous. But is Menou's true goal is to assist Lost Onesโ€”or the opposite? ![](https://i.imgur.com/YVAfkX3.png) --- **Language Options** I included two simple scripts that you can apply to these files to do the following (Windows only): 1. Make [Single Audio] Japanese: Throws out *English audio* and *Signs&Songs subtitles* tracks 2. Make [Single Audio] English: Throws out *Japanese audio* and *Dialogue subtitles* tracks To apply these put all the video files into the *Language Options* folder and run the .bat file. *Don't combine them and only use them once together with the base files.* --- **Source** ๐Ÿ—ƒ๏ธ Video and JPN Audio (BDMV): **[Lupin the Nerd]** Vol. 1 **[[KoushinRip]](https://nyaa.si/view/1583715)** Vol. 2 ๐Ÿ—ƒ๏ธ ENG Audio (WEB): **[[Yameii]](https://nyaa.si/view/1530691)** ๐Ÿ—ƒ๏ธ Subtitles: **[[Chihiro]](https://nyaa.si/view/1509274)** ๐Ÿ’ฌ *Subtitles Info: [Chihiro]* *Thank you all for making this possible <3* --- **Media Info** ๐Ÿ†” [Full Mediainfo incl. Encoder Settings](https://pastebin.com/PABP2fmE) ``` General Unique ID : 317459674306949337546672091951992295836 (0xEED48260B81B03B1D51AB6E47FCE519C) Complete name : The Executioner and Her Way of Life - S01E01.mkv Format : Matroska Format version : Version 4 File size : 350 MiB Duration : 24 min 26 s Overall bit rate : 2 003 kb/s Movie name : The Executioner and Her Way of Life - S01E01 Encoded date : UTC 2022-09-12 17:50:19 Writing application : mkvmerge v57.0.0 ('Till The End') 64-bit Writing library : libebml v1.4.2 + libmatroska v1.6.4 Attachments : Broken World.otf / Curse Casual.ttf / MilkyNice-Clean.otf / MyriadPro (Bold).otf / NewBaskerville.ttf / ResPublica.ttf / Swiss 721 Black Condensed BT.ttf / timesbd_0.ttf / WOX-Striped_Triple_Demo.otf Video ID : 1 Format : HEVC Format/Info : High Efficiency Video Coding Format profile : Main 10@L4@High Codec ID : V_MPEGH/ISO/HEVC Duration : 23 min 42 s Bit rate : 1 672 kb/s Width : 1 920 pixels Height : 1 080 pixels Display aspect ratio : 16:9 Frame rate mode : Constant Frame rate : 23.976 (24000/1001) FPS Color space : YUV Chroma subsampling : 4:2:0 Bit depth : 10 bits Bits/(Pixel*Frame) : 0.034 Stream size : 284 MiB (81%) Writing library : x265 3.5+1-f0c1022b6:[Windows][GCC 9.2.0][64 bit] 10bit Encoding settings : <Check Link Above> Default : Yes Forced : No Color range : Limited Color primaries : BT.709 Transfer characteristics : BT.709 Matrix coefficients : BT.709 Audio #1 ID : 2 Format : AAC LC Format/Info : Advanced Audio Codec Low Complexity Codec ID : A_AAC-2 Duration : 24 min 26 s Bit rate : 159 kb/s Channel(s) : 2 channels Channel layout : L R Sampling rate : 48.0 kHz Frame rate : 46.875 FPS (1024 SPF) Compression mode : Lossy Delay relative to video : 16 ms Stream size : 27.9 MiB (8%) Title : English Language : English Default : Yes Forced : No Audio #2 ID : 3 Format : AAC LC Format/Info : Advanced Audio Codec Low Complexity Codec ID : A_AAC-2 Duration : 23 min 42 s Bit rate : 208 kb/s Channel(s) : 2 channels Channel layout : L R Sampling rate : 48.0 kHz Frame rate : 46.875 FPS (1024 SPF) Compression mode : Lossy Stream size : 35.3 MiB (10%) Title : Japanese Language : Japanese Default : No Forced : No Text #1 ID : 4 Format : ASS Codec ID : S_TEXT/ASS Codec ID/Info : Advanced Sub Station Alpha Duration : 23 min 15 s Bit rate : 1 675 b/s Count of elements : 2105 Compression mode : Lossless Stream size : 285 KiB (0%) Title : Signs & Songs Language : English Default : No Forced : Yes Text #2 ID : 5 Format : ASS Codec ID : S_TEXT/ASS Codec ID/Info : Advanced Sub Station Alpha Duration : 23 min 38 s Bit rate : 1 764 b/s Count of elements : 2446 Compression mode : Lossless Stream size : 305 KiB (0%) Title : Dialogue Language : English Default : Yes Forced : No Menu 00:00:00.000 : :Episode 00:22:05.970 : :ED 00:23:35.980 : :Preview ```

File list

  • [neoHEVC] The Executioner and Her Way of Life [Season 1] [BD 1080p x265 HEVC AAC] [Dual Audio]
    • Language Options
      • 1. Make [Single Audio] English.bat (254 Bytes)
      • 2. Make [Single Audio] Japanese.bat (254 Bytes)
      • mkvmerge.exe (9.6 MiB)
      • readme.txt (511 Bytes)
    • The Executioner and Her Way of Life - S01E01.mkv (350.1 MiB)
    • The Executioner and Her Way of Life - S01E02.mkv (377.0 MiB)
    • The Executioner and Her Way of Life - S01E03.mkv (495.0 MiB)
    • The Executioner and Her Way of Life - S01E04.mkv (338.4 MiB)
    • The Executioner and Her Way of Life - S01E05.mkv (315.4 MiB)
    • The Executioner and Her Way of Life - S01E06.mkv (453.5 MiB)
    • The Executioner and Her Way of Life - S01E07.mkv (358.1 MiB)
    • The Executioner and Her Way of Life - S01E08.mkv (314.2 MiB)
    • The Executioner and Her Way of Life - S01E09.mkv (310.2 MiB)
    • The Executioner and Her Way of Life - S01E10.mkv (384.4 MiB)
    • The Executioner and Her Way of Life - S01E11.mkv (453.3 MiB)
    • The Executioner and Her Way of Life - S01E12.mkv (350.6 MiB)
Thanks! Can you do a BD batch for The Heike Story?

neoborn (uploader)

User
**@geha714** Not my kind of show, sorry :S ![](https://i.imgur.com/oFuo6oX.png)
Will you be doing magia record S2 and s3 as it's dub came out