[IrizaRaws] Shijou Saikyou no Daimaou (BDRip 1920x1080 x264 10bit FLAC)

Category:
Date:
2022-09-22 17:04 UTC
Submitter:
Seeders:
13
Information:
No information.
Leechers:
11
File size:
20.3 GiB
Completed:
153
Info hash:
b8b967fe5e5f7bb0e63959a2c17fc4a2b58fee64
Hello! My rips are made from Japanese BDMV, unless stated otherwise. In terms of video quality, my raws should be comparable to ReinForce (since I started from their settings, and then modified it). I don’t use AA, blur, denoise and other such “enhancements”. Basically, the idea of my encodes will be: as similar to BDMV as possible, while reducing size 3-4 times. Also I will rip Audio Commentaries, interview’s and such things (everything, that’s on BD). Again, If you found any Bugs, mistakes, problems etc. Please comment! If needed I will reencode. About this Anime: https://myanimelist.net/anime/48415 https://anidb.net/anime/16100 SEED PLEASE! Acknowledgments for BDMV: Lupin the Nerd Acknowledgments for Soundtrack: 無損音樂及Hi-res聲明 Hi-res OP 由天使動漫Takami_HN自購 https://www.tsdm39.net/forum.php?mod=viewthread&tid=1095696 Hi-res ED 由天使動漫XiaoYuOxO自購 https://www.tsdm39.net/forum.php?mod=viewthread&tid=1097767 動漫音樂微博,最新自購無損音樂更新情況 https://weibo.com/dmmusic 天使動漫TSDM自購,天使動漫音樂區原貼鏈接 https://www.tsdm39.net/forum.php?mod=forumdisplay&fid=247 MediaInfo: General Unique ID : 112449058760869005019396104881876609650 (0x5498E6A490CB06D7E4CBB58E2499AA72) Complete name : D:\work\Rip\Shijou Saikyou no Daimaou\[IrizaRaws] Shijou Saikyou no Daimaou (BDRip 1920x1080 x264 10bit FLAC)\[IrizaRaws] Shijou Saikyou no Daimaou - 01 (BDRip 1920x1080 x264 10bit FLAC).mkv Format : Matroska Format version : Version 4 / Version 2 File size : 1.12 GiB Duration : 23 min 41 s Overall bit rate mode : Variable Overall bit rate : 6 751 kb/s Encoded date : UTC 2022-09-21 19:40:32 Writing application : mkvmerge v66.0.0 ('Josie') 64-bit Writing library : libebml v1.4.2 + libmatroska v1.6.4 Video ID : 1 Format : AVC Format/Info : Advanced Video Codec Format profile : High 10@L5.2 Format settings : CABAC / 8 Ref Frames Format settings, CABAC : Yes Format settings, RefFrames : 8 frames Codec ID : V_MPEG4/ISO/AVC Duration : 23 min 41 s Bit rate : 5 371 kb/s Width : 1 920 pixels Height : 1 080 pixels Display aspect ratio : 16:9 Frame rate mode : Constant Frame rate : 23.976 (24000/1001) FPS Color space : YUV Chroma subsampling : 4:2:0 Bit depth : 10 bits Scan type : Progressive Bits/(Pixel*Frame) : 0.108 Stream size : 910 MiB (80%) Writing library : x264 core 164 r3094 bfc87b7 Encoding settings : cabac=1 / ref=8 / deblock=1:-2:-2 / analyse=0x3:0x113 / me=umh / subme=9 / psy=1 / psy_rd=0.70:0.00 / mixed_ref=0 / me_range=32 / chroma_me=1 / trellis=2 / 8x8dct=1 / cqm=0 / deadzone=21,11 / fast_pskip=0 / chroma_qp_offset=-2 / threads=22 / lookahead_threads=3 / sliced_threads=0 / nr=0 / decimate=1 / interlaced=0 / bluray_compat=0 / constrained_intra=0 / bframes=9 / b_pyramid=2 / b_adapt=2 / b_bias=0 / direct=0 / weightb=1 / open_gop=0 / weightp=2 / keyint=250 / keyint_min=23 / scenecut=40 / intra_refresh=0 / rc=crf / mbtree=0 / crf=17.5 / qcomp=1.00 / qpmin=0 / qpmax=40 / qpstep=4 / ip_ratio=1.40 / pb_ratio=1.30 / aq=1:1.00 Language : English Default : Yes Forced : No Audio ID : 2 Format : FLAC Format/Info : Free Lossless Audio Codec Codec ID : A_FLAC Duration : 23 min 41 s Bit rate mode : Variable Bit rate : 1 378 kb/s Channel(s) : 2 channels Channel positions : Front: L R Sampling rate : 48.0 kHz Frame rate : 11.719 FPS (4096 SPF) Bit depth : 24 bits Stream size : 233 MiB (20%) Title : Main FLAC 2.0 Writing library : libFLAC 1.3.4 (UTC 2022-02-20) Language : Japanese Default : Yes Forced : No Menu 00:00:00.000 : en:Intro 00:01:10.987 : en:Part A 00:12:39.008 : en:Part B 00:22:09.995 : en:ED

File list

  • [IrizaRaws] Shijou Saikyou no Daimaou (BDRip 1920x1080 x264 10bit FLAC)
    • Bonus
      • Menu
        • [IrizaRaws] Shijou Saikyou no Daimaou Menu - 01 (BDRip 1920x1080 x264 10bit FLAC).mkv (176.2 MiB)
        • [IrizaRaws] Shijou Saikyou no Daimaou Menu - 02 (BDRip 1920x1080 x264 10bit FLAC).mkv (186.6 MiB)
        • [IrizaRaws] Shijou Saikyou no Daimaou Menu - 03 (BDRip 1920x1080 x264 10bit FLAC).mkv (157.0 MiB)
      • NC
        • [IrizaRaws] Shijou Saikyou no Daimaou NCED (BDRip 1920x1080 x264 10bit FLAC).mkv (118.4 MiB)
        • [IrizaRaws] Shijou Saikyou no Daimaou NCOP (BDRip 1920x1080 x264 10bit FLAC).mkv (167.7 MiB)
      • PV
        • [IrizaRaws] Shijou Saikyou no Daimaou CM - 01 (BDRip 1920x1080 x264 10bit FLAC).mkv (21.2 MiB)
        • [IrizaRaws] Shijou Saikyou no Daimaou CM - 02 (BDRip 1920x1080 x264 10bit FLAC).mkv (23.0 MiB)
        • [IrizaRaws] Shijou Saikyou no Daimaou CM - 03 (BDRip 1920x1080 x264 10bit FLAC).mkv (22.6 MiB)
        • [IrizaRaws] Shijou Saikyou no Daimaou CM - 04 (BDRip 1920x1080 x264 10bit FLAC).mkv (22.4 MiB)
        • [IrizaRaws] Shijou Saikyou no Daimaou PV - 01 (BDRip 1920x1080 x264 10bit FLAC).mkv (175.4 MiB)
        • [IrizaRaws] Shijou Saikyou no Daimaou PV - 02 (BDRip 1920x1080 x264 10bit FLAC).mkv (123.0 MiB)
      • Preview
        • [IrizaRaws] Shijou Saikyou no Daimaou - EP02 Preview (BDRip 1920x1080 x264 10bit FLAC).mkv (45.9 MiB)
        • [IrizaRaws] Shijou Saikyou no Daimaou - EP03 Preview (BDRip 1920x1080 x264 10bit FLAC).mkv (37.8 MiB)
        • [IrizaRaws] Shijou Saikyou no Daimaou - EP04 Preview (BDRip 1920x1080 x264 10bit FLAC).mkv (32.8 MiB)
        • [IrizaRaws] Shijou Saikyou no Daimaou - EP05 Preview (BDRip 1920x1080 x264 10bit FLAC).mkv (70.6 MiB)
        • [IrizaRaws] Shijou Saikyou no Daimaou - EP06 Preview (BDRip 1920x1080 x264 10bit FLAC).mkv (31.3 MiB)
        • [IrizaRaws] Shijou Saikyou no Daimaou - EP07 Preview (BDRip 1920x1080 x264 10bit FLAC).mkv (33.1 MiB)
        • [IrizaRaws] Shijou Saikyou no Daimaou - EP08 Preview (BDRip 1920x1080 x264 10bit FLAC).mkv (45.7 MiB)
        • [IrizaRaws] Shijou Saikyou no Daimaou - EP09 Preview (BDRip 1920x1080 x264 10bit FLAC).mkv (28.4 MiB)
        • [IrizaRaws] Shijou Saikyou no Daimaou - EP10 Preview (BDRip 1920x1080 x264 10bit FLAC).mkv (37.4 MiB)
        • [IrizaRaws] Shijou Saikyou no Daimaou - EP11 Preview (BDRip 1920x1080 x264 10bit FLAC).mkv (34.8 MiB)
        • [IrizaRaws] Shijou Saikyou no Daimaou - EP12 Preview (BDRip 1920x1080 x264 10bit FLAC).mkv (59.3 MiB)
      • [IrizaRaws] Shijou Saikyou no Daimaou Logo (BDRip 1920x1080 x264 10bit FLAC).mkv (4.5 MiB)
    • Soundtrack
      • CDs
        • [EAC] [220427] OP「Be My Friend!!!」 (flac(24bits))
          • 01. Be My Friend!!!.flac (137.1 MiB)
          • 02. Nobody Knows.flac (138.6 MiB)
          • cover1a.jpg (116.4 KiB)
          • cover1b.jpg (24.6 KiB)
          • cover2.jpg (1.9 MiB)
          • 天使動漫@1895252自購.txt (71 Bytes)
        • [EAC] [220427] OP「Be My Friend!!!」[シルフィー盤] (flac+png)
          • scans
            • back.png (18.0 MiB)
            • bk-1.png (32.7 MiB)
            • bk-2.png (8.5 MiB)
            • cd.png (5.7 MiB)
            • front.png (55.7 MiB)
            • obi-1.png (7.4 MiB)
            • obi-2.png (7.6 MiB)
            • tray.png (18.8 MiB)
          • 01. Be My Friend!!!.flac (33.1 MiB)
          • 02. Nobody Knows.flac (29.6 MiB)
          • 03. Be My Friend!!! (Off Vocal).flac (32.8 MiB)
          • 04. Nobody Knows (Off Vocal).flac (28.0 MiB)
          • LACM-24248.cue (983 Bytes)
          • LACM-24248.log (6.9 KiB)
          • LACM-24248.utf8.cue (990 Bytes)
          • cover1a.jpg (247.0 KiB)
          • cover1b.jpg (24.6 KiB)
          • cover2.jpg (1.9 MiB)
        • [EAC] [220525] ED「reincarnation」 (flac(24bits))
          • 01. reincarnation.flac (115.7 MiB)
          • cover1a.jpg (88.6 KiB)
          • cover1b.jpg (31.5 KiB)
          • cover2a.jpg (91.0 KiB)
          • cover2b.jpg (35.8 KiB)
          • cover3.jpg (1.4 MiB)
          • 天使動漫@1904624自購.txt (71 Bytes)
    • [IrizaRaws] Shijou Saikyou no Daimaou - 01 (BDRip 1920x1080 x264 10bit FLAC).mkv (1.1 GiB)
    • [IrizaRaws] Shijou Saikyou no Daimaou - 02 (BDRip 1920x1080 x264 10bit FLAC).mkv (1.8 GiB)
    • [IrizaRaws] Shijou Saikyou no Daimaou - 03 (BDRip 1920x1080 x264 10bit FLAC).mkv (1.3 GiB)
    • [IrizaRaws] Shijou Saikyou no Daimaou - 04 (BDRip 1920x1080 x264 10bit FLAC).mkv (1.5 GiB)
    • [IrizaRaws] Shijou Saikyou no Daimaou - 05 (BDRip 1920x1080 x264 10bit FLAC).mkv (1.9 GiB)
    • [IrizaRaws] Shijou Saikyou no Daimaou - 06 (BDRip 1920x1080 x264 10bit FLAC).mkv (1.6 GiB)
    • [IrizaRaws] Shijou Saikyou no Daimaou - 07 (BDRip 1920x1080 x264 10bit FLAC).mkv (1.2 GiB)
    • [IrizaRaws] Shijou Saikyou no Daimaou - 08 (BDRip 1920x1080 x264 10bit FLAC).mkv (1.7 GiB)
    • [IrizaRaws] Shijou Saikyou no Daimaou - 09 (BDRip 1920x1080 x264 10bit FLAC).mkv (1.4 GiB)
    • [IrizaRaws] Shijou Saikyou no Daimaou - 10 (BDRip 1920x1080 x264 10bit FLAC).mkv (1.5 GiB)
    • [IrizaRaws] Shijou Saikyou no Daimaou - 11 (BDRip 1920x1080 x264 10bit FLAC).mkv (1.4 GiB)
    • [IrizaRaws] Shijou Saikyou no Daimaou - 12 (BDRip 1920x1080 x264 10bit FLAC).mkv (1.5 GiB)