[MagicStar] Kateikyoushi no Torako EP09 [WEBDL] [1080p] [HULU] [JPN_SUB]

Category:
Date:
2022-09-21 16:29 UTC
Submitter:
Seeders:
22
Information:
Leechers:
8
File size:
1.5 GiB
Completed:
477
Info hash:
0f7ea9bc2151c6489eeee462f1d4fb01b6ed420a
HD 1080p from HULU JAPAN. ![alt text](https://i.ibb.co/5G5dZ7v/17ac652a-4afa-4a9f-badd-faf8e01abaecb.jpg) ![alt text](https://i.ibb.co/HGGMp68/Kateikyoushi-no-Torako-EP09-1080p-HULU-WEB-DL-AAC2-0-H-264-Magic-Star-mkv.jpg) ``` General Unique ID : 140980069919198128690129339558557726342 (0x6A0FC619317AFA99D4CD4E67C4C53686) Complete name : Kateikyoushi.no.Torako.EP09.1080p.HULU.WEB-DL.AAC2.0.H.264-MagicStar.mkv Format : Matroska Format version : Version 4 File size : 1.46 GiB Duration : 51 min 19 s Overall bit rate : 4 062 kb/s Encoded date : UTC 2022-09-19 20:28:41 Writing application : mkvmerge v50.0.0 ('Awakenings') 64-bit Writing library : libebml v1.4.0 + libmatroska v1.6.2 Cover : Yes Attachments : cover.png Video ID : 1 Format : AVC Format/Info : Advanced Video Codec Format profile : High@L4 Format settings : CABAC / 4 Ref Frames Format settings, CABAC : Yes Format settings, ReFrames : 4 frames Codec ID : V_MPEG4/ISO/AVC Duration : 51 min 19 s Bit rate : 3 934 kb/s Width : 1 920 pixels Height : 1 080 pixels Display aspect ratio : 16:9 Frame rate mode : Constant Frame rate : 29.970 (29970/1000) FPS Original frame rate : 29.970 (30000/1001) FPS Color space : YUV Chroma subsampling : 4:2:0 Bit depth : 8 bits Scan type : Progressive Bits/(Pixel*Frame) : 0.063 Stream size : 1.41 GiB (97%) Default : Yes Forced : No Color range : Limited Color primaries : BT.709 Transfer characteristics : BT.709 Matrix coefficients : BT.709 Audio ID : 2 Format : AAC LC Format/Info : Advanced Audio Codec Low Complexity Codec ID : A_AAC-2 Duration : 51 min 19 s Bit rate : 125 kb/s Channel(s) : 2 channels Channel layout : L R Sampling rate : 48.0 kHz Frame rate : 46.875 FPS (1024 SPF) Compression mode : Lossy Stream size : 46.0 MiB (3%) Language : Japanese Default : Yes Forced : No ```

File list