[MagicStar] OTHELLO EP06 [WEBDL] [1080p] [AMZN] [JPN_SUB]

Category:
Date:
2022-09-13 08:34 UTC
Submitter:
Seeders:
0
Information:
Leechers:
0
File size:
1.5 GiB
Completed:
448
Info hash:
e677574b6a1f975d305f1327c853504f1aa6c1b6
HD 1080p from Prime Video. Use CBR bitrate mode. Japanese subtitles added. ************** We are planning to upload all prime video japan Dramas and Movies, we need your Support! ************** Support Us Ali (Zhifubao / QR code): https://i.ibb.co/FWV2ggm/1660626347125.png PayPalMe: https://www.paypal.com/paypalme/sakuragikenji ************** ![alt text](https://i.ibb.co/PYDCzP3/71uph8-PD63-L.jpg) ![alt text](https://i.ibb.co/z2YcqGV/OTHELLO-EP06-1080p-AMZN-WEB-DL-DDP2-0-H-264-Magic-Star-mkv.jpg) ``` General Unique ID : 178593250248281918023783971362870177145 (0x865BCF10EA61FFB373EAC5605AB0AD79) Complete name : OTHELLO.EP06.1080p.AMZN.WEB-DL.DDP2.0.H.264-MagicStar.mkv Format : Matroska Format version : Version 4 File size : 1.45 GiB Duration : 23 min 30 s Overall bit rate mode : Constant Overall bit rate : 8 837 kb/s Encoded date : UTC 2022-09-12 23:58:21 Writing application : mkvmerge v50.0.0 ('Awakenings') 64-bit Writing library : libebml v1.4.0 + libmatroska v1.6.2 Cover : Yes Attachments : cover.png Video ID : 1 Format : AVC Format/Info : Advanced Video Codec Format profile : High@L4 Format settings : CABAC / 4 Ref Frames Format settings, CABAC : Yes Format settings, Reference fra : 4 frames Codec ID : V_MPEG4/ISO/AVC Duration : 23 min 30 s Bit rate mode : Constant Bit rate : 8 602 kb/s Nominal bit rate : 10 000 kb/s Width : 1 920 pixels Height : 1 080 pixels Display aspect ratio : 16:9 Frame rate mode : Constant Frame rate : 29.970 (29970/1000) FPS Original frame rate : 29.970 (30000/1001) FPS Color space : YUV Chroma subsampling : 4:2:0 Bit depth : 8 bits Scan type : Progressive Bits/(Pixel*Frame) : 0.138 Stream size : 1.41 GiB (97%) Default : Yes Forced : No Color range : Limited Color primaries : BT.709 Transfer characteristics : BT.709 Matrix coefficients : BT.709 Audio ID : 2 Format : E-AC-3 Format/Info : Enhanced AC-3 Commercial name : Dolby Digital Plus Codec ID : A_EAC3 Duration : 23 min 30 s Bit rate mode : Constant Bit rate : 224 kb/s Channel(s) : 2 channels Channel layout : L R Sampling rate : 48.0 kHz Frame rate : 31.250 FPS (1536 SPF) Compression mode : Lossy Stream size : 37.7 MiB (3%) Language : Japanese Service kind : Complete Main Default : Yes Forced : No ```

File list