[MagicStar] Kanojo, Okarishimasu EP08 [WEBDL] [1080p] [HULU] [JPN_SUB]

Category:
Date:
2022-09-13 08:33 UTC
Submitter:
Seeders:
4
Information:
Leechers:
1
File size:
680.8 MiB
Completed:
662
Info hash:
fcbf755498aea04152bc52b94510774c05a2c60b
HD 1080p from HULU JAPAN. ![alt text](https://i.ibb.co/9NXzXKM/1d7e7514-a5ca-4761-8247-d8b7e04089d8b.jpg) ![alt text](https://i.ibb.co/wMMqHyt/Kanojo-Okarishimasu-EP08-1080p-HULU-WEB-DL-AAC2-0-H-264-Magic-Star-mkv.jpg) ``` General Unique ID : 286119804570227787749372424826189306230 (0xD740AB808F1196B570D858DD7700D976) Complete name : Kanojo.Okarishimasu.EP08.1080p.HULU.WEB-DL.AAC2.0.H.264-MagicStar.mkv Format : Matroska Format version : Version 4 File size : 681 MiB Duration : 23 min 27 s Overall bit rate : 4 059 kb/s Encoded date : UTC 2022-09-12 23:43:28 Writing application : mkvmerge v50.0.0 ('Awakenings') 64-bit Writing library : libebml v1.4.0 + libmatroska v1.6.2 Cover : Yes Attachments : cover.png Video ID : 1 Format : AVC Format/Info : Advanced Video Codec Format profile : High@L4 Format settings : CABAC / 4 Ref Frames Format settings, CABAC : Yes Format settings, Reference fra : 4 frames Codec ID : V_MPEG4/ISO/AVC Duration : 23 min 27 s Bit rate : 3 930 kb/s Width : 1 920 pixels Height : 1 080 pixels Display aspect ratio : 16:9 Frame rate mode : Constant Frame rate : 29.970 (29970/1000) FPS Original frame rate : 29.970 (30000/1001) FPS Color space : YUV Chroma subsampling : 4:2:0 Bit depth : 8 bits Scan type : Progressive Bits/(Pixel*Frame) : 0.063 Stream size : 659 MiB (97%) Default : Yes Forced : No Color range : Limited Color primaries : BT.709 Transfer characteristics : BT.709 Matrix coefficients : BT.709 Audio ID : 2 Format : AAC LC Format/Info : Advanced Audio Codec Low Complexity Codec ID : A_AAC-2 Duration : 23 min 27 s Bit rate : 125 kb/s Channel(s) : 2 channels Channel layout : L R Sampling rate : 48.0 kHz Frame rate : 46.875 FPS (1024 SPF) Compression mode : Lossy Stream size : 21.0 MiB (3%) Language : Japanese Default : Yes Forced : No ```

File list