[neoHEVC] Release the Spyce [Season 1] [BD 1080p x265 HEVC AAC] [Dual Audio]

Category:
Date:
2022-09-11 13:12 UTC
Submitter:
Seeders:
17
Information:
Leechers:
0
File size:
3.7 GiB
Completed:
909
Info hash:
4ce0a00c46d450f78f8e650a650b78c2e343a991
![](https://i.imgur.com/RBlGp48.png) *Come hang out in **[Discord](https://discord.gg/47Q7FdB54e)*** #### **[Release the Spyce [Season 1]](https://myanimelist.net/anime/37221/Release_the_Spyce)** Notes: . Changed main dialogue font . Touched up some signs here and there ▶️ **[Trailer](https://www.youtube.com/watch?v=SAOueRUVqnw)** --- **Synopsis** Momo Minamoto is a shy teenager who simply wants to do good in the world. Her dream is to follow in her police officer father's footsteps and support law and order. And just like him, she has a very unique ability: her senses are much more refined than those of any average person. A simple lick will enable her to determine what someone is feeling. One night, as she admires the landscape, Momo sees suspicious shades moving in the distance. After learning that those shades were spies, she is recruited by their captain Yuki Hanzoumon, a senior at her school. The members of their secret agency, called the Tsukikage, also have the power to gain strength after ingesting spices. Release the Spyce is an action-packed spy series about the Tsukikage's missions as they fight in the shadows to protect the city from crime while keeping up with their high school life. ![](https://i.imgur.com/6CZSyKj.png) --- **Language Options** I included two simple scripts that you can apply to these files to do the following (Windows only): 1. Make [Single Audio] Japanese: Throws out *English audio* and *Signs&Songs subtitles* tracks 2. Make [Single Audio] English: Throws out *Japanese audio* and *Dialogue subtitles* tracks To apply these put all the video files into the *Language Options* folder and run the .bat file. *Don't combine them and only use them once together with the base files.* --- **Source** 🗃️ Video and Audio (BDMV): **[Lupin the Nerd]** 🗃️ Subtitles: **[[NS-HAV1E]](https://nyaa.si/view/1261697)** 💬 *Subtitles Info: [NS-HAV1E]* *Thank you all for making this possible <3* --- **Media Info** 🆔 [Full Mediainfo incl. Encoder Settings](https://pastebin.com/MmjLLBUZ) ``` General Unique ID : 15923388599974299136085703018594520905 (0xBFABBABEC2EA375DC9564A153814F49) Complete name : Release the Spyce - S01E01.mkv Format : Matroska Format version : Version 4 File size : 322 MiB Duration : 25 min 31 s Overall bit rate : 1 763 kb/s Movie name : Release the Spyce - S01E01 Encoded date : UTC 2022-09-10 21:12:13 Writing application : mkvmerge v57.0.0 ('Till The End') 64-bit Writing library : libebml v1.4.2 + libmatroska v1.6.4 / Lavf58.46.101 Attachments : CRONOSPRO-BOLD.OTF / CRONOSPRO-BOLDIT.OTF / apjfk.ttf / GandhiSans.otf / GandhiSansi.otf Video ID : 1 Format : HEVC Format/Info : High Efficiency Video Coding Format profile : Main 10@L4@High Codec ID : V_MPEGH/ISO/HEVC Duration : 25 min 31 s Bit rate : 1 350 kb/s Width : 1 920 pixels Height : 1 080 pixels Display aspect ratio : 16:9 Frame rate mode : Constant Frame rate : 23.976 (24000/1001) FPS Color space : YUV Chroma subsampling : 4:2:0 Bit depth : 10 bits Bits/(Pixel*Frame) : 0.027 Stream size : 246 MiB (77%) Writing library : x265 3.5+1-f0c1022b6:[Windows][GCC 9.2.0][64 bit] 10bit Encoding settings : <Check Link Above> Default : Yes Forced : No Color range : Limited Color primaries : BT.709 Transfer characteristics : BT.709 Matrix coefficients : BT.709 Audio #1 ID : 2 Format : AAC LC Format/Info : Advanced Audio Codec Low Complexity Codec ID : A_AAC-2 Duration : 24 min 32 s Bit rate : 208 kb/s Channel(s) : 2 channels Channel layout : L R Sampling rate : 48.0 kHz Frame rate : 46.875 FPS (1024 SPF) Compression mode : Lossy Stream size : 36.5 MiB (11%) Title : English Language : English Default : Yes Forced : No Audio #2 ID : 3 Format : AAC LC Format/Info : Advanced Audio Codec Low Complexity Codec ID : A_AAC-2 Duration : 24 min 32 s Bit rate : 215 kb/s Channel(s) : 2 channels Channel layout : L R Sampling rate : 48.0 kHz Frame rate : 46.875 FPS (1024 SPF) Compression mode : Lossy Stream size : 37.7 MiB (12%) Title : Japanese Language : Japanese Default : No Forced : No Text #1 ID : 4 Format : ASS Codec ID : S_TEXT/ASS Codec ID/Info : Advanced Sub Station Alpha Duration : 23 min 50 s Bit rate : 28 b/s Count of elements : 67 Compression mode : Lossless Stream size : 4.92 KiB (0%) Title : Signs & Songs Language : English Default : No Forced : Yes Text #2 ID : 5 Format : ASS Codec ID : S_TEXT/ASS Codec ID/Info : Advanced Sub Station Alpha Duration : 23 min 50 s Bit rate : 152 b/s Count of elements : 443 Compression mode : Lossless Stream size : 26.6 KiB (0%) Title : Dialogue Language : English Default : Yes Forced : No Menu 00:00:00.000 : :Intro 00:04:28.750 : :Episode 00:22:04.470 : :ED 00:23:34.430 : :Epilogue 00:24:15.480 : :Preview 00:24:30.450 : :Credits ```

File list

  • [neoHEVC] Release the Spyce [Season 1] [BD 1080p x265 HEVC AAC] [Dual Audio]
    • Language Options
      • 1. Make [Single Audio] English.bat (254 Bytes)
      • 2. Make [Single Audio] Japanese.bat (254 Bytes)
      • mkvmerge.exe (9.6 MiB)
      • readme.txt (511 Bytes)
    • Release the Spyce - S01E01.mkv (321.9 MiB)
    • Release the Spyce - S01E02.mkv (344.1 MiB)
    • Release the Spyce - S01E03.mkv (314.7 MiB)
    • Release the Spyce - S01E04.mkv (299.8 MiB)
    • Release the Spyce - S01E05.mkv (307.1 MiB)
    • Release the Spyce - S01E06.mkv (298.7 MiB)
    • Release the Spyce - S01E07.mkv (342.2 MiB)
    • Release the Spyce - S01E08.mkv (305.9 MiB)
    • Release the Spyce - S01E09.mkv (321.8 MiB)
    • Release the Spyce - S01E10.mkv (329.9 MiB)
    • Release the Spyce - S01E11.mkv (331.0 MiB)
    • Release the Spyce - S01E12.mkv (274.0 MiB)
Can you also add ova patch for jobless reincarnation as the dub is out

neoborn (uploader)

User
**@Romanjohn** I completely forgot about that. Will link the patch on the Mushoku Tensei torrent tomorrow after work.
this is the official prequel for lycoris recoil that started the events in new anime. make sure to give it a watch.

neoborn (uploader)

User
**@fuee** Didn't know that. Just saw ninja girls and thought I must have it =3
Thank you. No clue what this is. Just because neoborn has it.