The.Quintessential.Quintuplets.S02.1080p.Blu-Ray.10-Bit.Dual-Audio.TrueHD.x265-iAHD

Category:
Date:
2022-08-28 01:00 UTC
Submitter:
Seeders:
13
Information:
No information.
Leechers:
0
File size:
17.5 GiB
Completed:
649
Info hash:
4a7646ed8d750864d113151aa49188dfccb9aeb8
Video ID : 1 Format : HEVC Format/Info : High Efficiency Video Coding Format profile : Main 10@L5@Main Codec ID : V_MPEGH/ISO/HEVC Duration : 24 min 7 s Bit rate : 6 264 kb/s Width : 1 920 pixels Height : 1 080 pixels Display aspect ratio : 16:9 Frame rate mode : Constant Frame rate : 23.976 (24000/1001) FPS Color space : YUV Chroma subsampling : 4:2:0 (Type 0) Bit depth : 10 bits Bits/(Pixel*Frame) : 0.126 Stream size : 1.06 GiB (70%) Writing library : x265 3.5+1-f0c1022b6:[Windows][GCC 10.2.0][64 bit] 10bit Encoding settings : cpuid=1111039 / frame-threads=4 / numa-pools=16 / wpp / no-pmode / no-pme / no-psnr / no-ssim / log-level=2 / input-csp=1 / input-res=1920x1080 / interlace=0 / total-frames=0 / level-idc=0 / high-tier=1 / uhd-bd=0 / ref=6 / no-allow-non-conformance / no-repeat-headers / annexb / no-aud / no-hrd / info / hash=0 / no-temporal-layers / open-gop / min-keyint=24 / keyint=240 / gop-lookahead=0 / bframes=16 / b-adapt=2 / b-pyramid / bframe-bias=0 / rc-lookahead=50 / lookahead-slices=4 / scenecut=40 / hist-scenecut=0 / radl=0 / no-splice / no-intra-refresh / ctu=32 / min-cu-size=8 / no-rect / no-amp / max-tu-size=32 / tu-inter-depth=1 / tu-intra-depth=3 / limit-tu=0 / rdoq-level=2 / dynamic-rd=0.00 / no-ssim-rd / signhide / tskip / nr-intra=0 / nr-inter=0 / no-constrained-intra / no-strong-intra-smoothing / max-merge=3 / limit-refs=3 / limit-modes / me=3 / subme=3 / merange=57 / temporal-mvp / no-frame-dup / no-hme / weightp / no-weightb / no-analyze-src-pics / deblock=1:1 / no-sao / no-sao-non-deblock / rd=4 / selective-sao=0 / no-early-skip / rskip / no-fast-intra / tskip-fast / no-cu-lossless / no-b-intra / no-splitrd-skip / rdpenalty=0 / psy-rd=0.80 / psy-rdoq=2.00 / no-rd-refine / no-lossless / cbqpoffs=0 / crqpoffs=0 / rc=crf / crf=16.0 / qcomp=0.60 / qpstep=4 / stats-write=0 / stats-read=0 / ipratio=1.40 / pbratio=1.30 / aq-mode=3 / aq-strength=1.25 / cutree / zone-count=0 / no-strict-cbr / qg-size=32 / no-rc-grain / qpmax=69 / qpmin=0 / no-const-vbv / sar=1 / overscan=0 / videoformat=5 / range=0 / colorprim=1 / transfer=1 / colormatrix=1 / chromaloc=1 / chromaloc-top=0 / chromaloc-bottom=0 / display-window=0 / cll=0,0 / min-luma=0 / max-luma=1023 / log2-max-poc-lsb=8 / vui-timing-info / vui-hrd-info / slices=1 / no-opt-qp-pps / no-opt-ref-list-length-pps / no-multi-pass-opt-rps / scenecut-bias=0.05 / hist-threshold=0.03 / no-opt-cu-delta-qp / no-aq-motion / no-hdr10 / no-hdr10-opt / no-dhdr10-opt / no-idr-recovery-sei / analysis-reuse-level=0 / analysis-save-reuse-level=0 / analysis-load-reuse-level=0 / scale-factor=0 / refine-intra=0 / refine-inter=0 / refine-mv=1 / refine-ctu-distortion=0 / no-limit-sao / ctu-info=0 / no-lowpass-dct / refine-analysis-type=0 / copy-pic=1 / max-ausize-factor=1.0 / no-dynamic-refine / no-single-sei / no-hevc-aq / no-svt / no-field / qp-adaptation-range=1.00 / scenecut-aware-qp=0conformance-window-offsets / right=0 / bottom=0 / decoder-max-rate=0 / no-vbv-live-multi-pass Language : English Default : Yes Forced : No Color range : Limited Color primaries : BT.709 Transfer characteristics : BT.709 Matrix coefficients : BT.709 Audio #1 ID : 2 Format : MLP FBA Format/Info : Meridian Lossless Packing FBA Commercial name : Dolby TrueHD Codec ID : A_TRUEHD Duration : 24 min 7 s Bit rate mode : Variable Bit rate : 1 466 kb/s Maximum bit rate : 2 085 kb/s Channel(s) : 6 channels Channel layout : L R C LFE Ls Rs Sampling rate : 48.0 kHz Frame rate : 1 200.000 FPS (40 SPF) Compression mode : Lossless Stream size : 253 MiB (16%) Language : English Default : Yes Forced : No Audio #2 ID : 3 Format : MLP FBA Format/Info : Meridian Lossless Packing FBA Commercial name : Dolby TrueHD Codec ID : A_TRUEHD Duration : 24 min 7 s Bit rate mode : Variable Bit rate : 1 094 kb/s Maximum bit rate : 1 632 kb/s Channel(s) : 2 channels Channel layout : L R Sampling rate : 48.0 kHz Frame rate : 1 200.000 FPS (40 SPF) Compression mode : Lossless Stream size : 189 MiB (12%) Language : Japanese Default : Yes Forced : No Text #1 ID : 4 Format : PGS Muxing mode : zlib Codec ID : S_HDMV/PGS Codec ID/Info : Picture based subtitle format used on BDs/HD-DVDs Duration : 23 min 42 s Bit rate : 6 470 b/s Count of elements : 92 Stream size : 1.10 MiB (0%) Title : Signs / Songs Language : English Default : Yes Forced : No Text #2 ID : 5 Format : PGS Muxing mode : zlib Codec ID : S_HDMV/PGS Codec ID/Info : Picture based subtitle format used on BDs/HD-DVDs Duration : 24 min 2 s Bit rate : 55.2 kb/s Count of elements : 881 Stream size : 9.49 MiB (1%) Title : Dialogue Language : English Default : No Forced : No Menu 00:00:00.000 : en:Chapter 01 00:00:23.023 : en:Chapter 02 00:01:53.030 : en:Chapter 03 00:15:08.116 : en:Chapter 04 00:22:31.100 : en:Chapter 05 00:24:01.065 : en:Chapter 06

File list

  • The.Quintessential.Quintuplets.S02.1080p.Blu-Ray.10-Bit.Dual-Audio.TrueHD.x265-iAHD
    • The.Quintessential.Quintuplets.S02E01.1080p.Blu-Ray.10-Bit.Dual-Audio.TrueHD.x265-iAHD.mkv (1.5 GiB)
    • The.Quintessential.Quintuplets.S02E02.1080p.Blu-Ray.10-Bit.Dual-Audio.TrueHD.x265-iAHD.mkv (1.5 GiB)
    • The.Quintessential.Quintuplets.S02E03.1080p.Blu-Ray.10-Bit.Dual-Audio.TrueHD.x265-iAHD.mkv (1.6 GiB)
    • The.Quintessential.Quintuplets.S02E04.1080p.Blu-Ray.10-Bit.Dual-Audio.TrueHD.x265-iAHD.mkv (1.5 GiB)
    • The.Quintessential.Quintuplets.S02E05.1080p.Blu-Ray.10-Bit.Dual-Audio.TrueHD.x265-iAHD.mkv (1.4 GiB)
    • The.Quintessential.Quintuplets.S02E06.1080p.Blu-Ray.10-Bit.Dual-Audio.TrueHD.x265-iAHD.mkv (1.4 GiB)
    • The.Quintessential.Quintuplets.S02E07.1080p.Blu-Ray.10-Bit.Dual-Audio.TrueHD.x265-iAHD.mkv (1.5 GiB)
    • The.Quintessential.Quintuplets.S02E08.1080p.Blu-Ray.10-Bit.Dual-Audio.TrueHD.x265-iAHD.mkv (1.4 GiB)
    • The.Quintessential.Quintuplets.S02E09.1080p.Blu-Ray.10-Bit.Dual-Audio.TrueHD.x265-iAHD.mkv (1.5 GiB)
    • The.Quintessential.Quintuplets.S02E10.1080p.Blu-Ray.10-Bit.Dual-Audio.TrueHD.x265-iAHD.mkv (1.5 GiB)
    • The.Quintessential.Quintuplets.S02E11.1080p.Blu-Ray.10-Bit.Dual-Audio.TrueHD.x265-iAHD.mkv (1.4 GiB)
    • The.Quintessential.Quintuplets.S02E12.1080p.Blu-Ray.10-Bit.Dual-Audio.TrueHD.x265-iAHD.mkv (1.4 GiB)
Any chance of Panty & Stocking before the second season comes out?
Great work as always :) hoping for more Fruits Basket in the next upload πŸ’–
**appreciation* ![Eru-Ibara-300](https://i.postimg.cc/kXbpqPD2/300.gif)
Thanks for this. Would it be too much to ask if your Cross Ange be seeded?
@SmugAnimeGirl It's on my GDrive. This one ----> Series 1: https://drive.google.com/drive/folders/19BzwPWw9YOQ9CVVmQe6ixGgY7FCnr5Gl Series 2: https://drive.google.com/drive/folders/1KI0bZ1MaJuboFk3wm2vz8RS3WqOPNUFa Movies: https://drive.google.com/drive/folders/1laFXSXru1RtMj029iRxxn-Kr4YFJ3DUc Enjoy :)
Fucking based. Thanks my dude.
Did I already say that we're happy to see you back? πŸ˜€πŸ˜€
You're back? HELL YEAH.
I’m begging for more fruits basket and AOT please πŸ™πŸ»πŸ’–
@SmugAnimeGirl Don’t jinx it πŸ‘ˆπŸ‘€ lol just kidding
Hey, @iAHQ I hope you had a merry Christmas, I just wanted to say that I miss your content, and believe it or not I'm checking this page like a madman for a new torrent from you lol. I probably said this a lot and it is not my intention to be annoying but your content does bring me joy. I've stopped watching anime for a long time and yet whenever you upload something new I get reminded yet again of how much fun anime can be. Thank you
Yo, hope you come back to finish up some more shows like attack on titan. Your stuff is still a large majority of my collection.
Fruit Basket and MHA for me lol