[neoHEVC] Bottom-Tier Character Tomozaki [Season 1 + Specials] [BD WEB 1080p x265 HEVC AAC] [Dual Audio] Jaku-Chara Tomozaki-kun

Category:
Date:
2022-08-14 08:23 UTC
Submitter:
Seeders:
10
Information:
Leechers:
2
File size:
4.0 GiB
Completed:
593
Info hash:
c92fd3619480303d299a01d37869e3ba52e38df7
![](https://i.imgur.com/RBlGp48.png) *Come hang out in **[Discord](https://discord.gg/47Q7FdB54e)*** #### **[Bottom-Tier Character Tomozaki [Season 1]](https://myanimelist.net/anime/40530/Jaku-Chara_Tomozaki-kun)** #### **[Bottom-Tier Character Tomozaki [Specials]](https://myanimelist.net/anime/45604/Jaku-Chara_Tomozaki-kun_Specials)** Notes: . EP 1-8 + both Specials are BD sourced, EP 9-12 are WEB sourced (last 2 BD volumes prove to be elusive little bakas so I gave up on waiting for them) . Cut funimation intro for EP 9-12 . Resampled script . Restyled script . Created styled OPED (This show has a couple versions of the ending with different lyrics depending on which character is singing it. I could only track down the official ending and left it out whenever it deviated from that ending.) . Adjusted a couple signs here and there ▶️ **[Trailer](https://www.youtube.com/watch?v=l0ztDmW5iOM)** --- **Synopsis** Fumiya Tomozaki is Japan's best player in the online game Attack Families, commonly known as "Tackfam." Despite holding such a revered title, a lack of social skills and amiability causes him to fall short in his everyday high school life. Failing to have any friends, he blames the convoluted mechanics and unfair rules of life, forcing him to give up and proclaim himself a bottom-tier character in this "game." After a fateful meeting with another top-tier Tackfam player, Fumiya is shocked to discover the player's true identity—Aoi Hinami, a popular, smart, and sociable classmate who is the complete opposite of himself. Aoi, surprised at how inept Fumiya is at everything besides Tackfam, decides to assist him in succeeding in what she calls the greatest game of them all. Through the gruesome ordeals of social interactions and relationships, Fumiya begins to advance tiers in the glorious game of life. ![](https://i.imgur.com/VSiPZNP.gif) ![](https://i.imgur.com/ocmoGma.png) ![](https://i.imgur.com/OavODrJ.gif) --- **Language Options** I included two simple scripts that you can apply to these files to do the following (Windows only): 1. Make [Single Audio] Japanese: Throws out *English audio* and *Signs&Songs subtitles* tracks 2. Make [Single Audio] English: Throws out *Japanese audio* and *Dialogue subtitles* tracks To apply these put all the video files into the *Language Options* folder and run the .bat file. *Don't combine them and only use them once together with the base files.* --- **Source** 🗃️ Video and JPN Audio (BDMV): **[[ΑΩ]](https://nyaa.si/view/1373797)** Vol 1-3 **[Delusion]** Vol 4 🗃️ Video and JPN Audio (WEB): **[[Erai-raws]](https://nyaa.si/view/1352802)** EP 9-12 🗃️ ENG Audio (WEB): **[[Golumpa]](https://nyaa.si/view/1356127)** Season **[[KS]](https://nyaa.si/view/1441431)** Specials 🗃️ Subtitles: **[[Erai-raws]](https://nyaa.si/view/1326486)** Season **[[Erai-raws]](https://nyaa.si/view/1414736)** Specials 💬 *Subtitles Info: [Erai-raws] base, [Me] see notes* *Thank you all for making this possible <3* --- **Media Info** 🆔 [Full Mediainfo incl. Encoder Settings](https://pastebin.com/uzpSmDbP) ``` General Unique ID : 104018663899673854707199301767972198210 (0x4E414415D207B9BF6626959997031742) Complete name : Bottom-Tier Character Tomozaki - S01E01.mkv Format : Matroska Format version : Version 4 File size : 328 MiB Duration : 23 min 40 s Overall bit rate : 1 936 kb/s Movie name : Bottom-Tier Character Tomozaki - S01E01 Encoded date : UTC 2022-01-28 12:22:08 Writing application : mkvmerge v57.0.0 ('Till The End') 64-bit Writing library : libebml v1.4.2 + libmatroska v1.6.4 / Lavf58.29.100 Attachments : CronosPro-Semibold.ttf / Minecraft.ttf / NineteenNinetyThree-L1Ay.ttf / OpenSans-ExtraBold.ttf / OpenSans-Regular.ttf / OpenSans-Semibold.ttf / CRONOSPRO-BOLD.OTF / cronus.round.otf / GANDHISANS-BOLD.OTF / GANDHISANS-BOLDITALIC.OTF Video ID : 1 Format : HEVC Format/Info : High Efficiency Video Coding Format profile : Main 10@L4.1@High Codec ID : V_MPEGH/ISO/HEVC Duration : 23 min 40 s Bit rate : 1 551 kb/s Width : 1 920 pixels Height : 1 080 pixels Display aspect ratio : 16:9 Frame rate mode : Constant Frame rate : 23.976 (24000/1001) FPS Color space : YUV Chroma subsampling : 4:2:0 Bit depth : 10 bits Bits/(Pixel*Frame) : 0.031 Stream size : 263 MiB (80%) Writing library : x265 3.2.1+1-b5c86a64bbbe:[Windows][GCC 9.2.0][64 bit] 10bit Encoding settings : <Check Link Above> Default : Yes Forced : No Color range : Limited Color primaries : BT.709 Transfer characteristics : BT.709 Matrix coefficients : BT.709 Audio #1 ID : 2 Format : AAC LC Format/Info : Advanced Audio Codec Low Complexity Codec ID : A_AAC-2 Duration : 23 min 40 s Bit rate : 253 kb/s Channel(s) : 2 channels Channel layout : L R Sampling rate : 48.0 kHz Frame rate : 46.875 FPS (1024 SPF) Compression mode : Lossy Delay relative to video : 19 ms Stream size : 42.9 MiB (13%) Title : English Language : English Default : Yes Forced : No Audio #2 ID : 3 Format : AAC LC Format/Info : Advanced Audio Codec Low Complexity Codec ID : A_AAC-2 Duration : 23 min 40 s Bit rate : 119 kb/s Channel(s) : 2 channels Channel layout : L R Sampling rate : 48.0 kHz Frame rate : 46.875 FPS (1024 SPF) Compression mode : Lossy Stream size : 20.2 MiB (6%) Title : Japanese Language : Japanese Default : No Forced : No Text #1 ID : 4 Format : ASS Codec ID : S_TEXT/ASS Codec ID/Info : Advanced Sub Station Alpha Duration : 23 min 33 s Bit rate : 374 b/s Count of elements : 505 Compression mode : Lossless Stream size : 64.7 KiB (0%) Title : Signs & Songs Language : English Default : No Forced : Yes Text #2 ID : 5 Format : ASS Codec ID : S_TEXT/ASS Codec ID/Info : Advanced Sub Station Alpha Duration : 23 min 33 s Bit rate : 510 b/s Count of elements : 917 Compression mode : Lossless Stream size : 88.0 KiB (0%) Title : Dialogue Language : English Default : Yes Forced : No Menu 00:00:00.000 : Intro 00:01:12.990 : Episode 00:22:09.954 : ED ```

File list

  • [neoHEVC] Bottom-Tier Character Tomozaki [Season 1 + Specials] [BD WEB 1080p x265 HEVC AAC] [Dual Audio]
    • Language Options
      • 1. Make [Single Audio] English.bat (254 Bytes)
      • 2. Make [Single Audio] Japanese.bat (254 Bytes)
      • mkvmerge.exe (9.6 MiB)
      • readme.txt (512 Bytes)
    • Specials
      • Bottom-Tier Character Tomozaki - S00E01 - (S1S1).mkv (161.3 MiB)
      • Bottom-Tier Character Tomozaki - S00E02 - (S1S2).mkv (215.2 MiB)
    • Bottom-Tier Character Tomozaki - S01E01.mkv (327.9 MiB)
    • Bottom-Tier Character Tomozaki - S01E02.mkv (298.1 MiB)
    • Bottom-Tier Character Tomozaki - S01E03.mkv (242.0 MiB)
    • Bottom-Tier Character Tomozaki - S01E04.mkv (340.8 MiB)
    • Bottom-Tier Character Tomozaki - S01E05.mkv (278.5 MiB)
    • Bottom-Tier Character Tomozaki - S01E06.mkv (290.0 MiB)
    • Bottom-Tier Character Tomozaki - S01E07.mkv (291.1 MiB)
    • Bottom-Tier Character Tomozaki - S01E08.mkv (307.7 MiB)
    • Bottom-Tier Character Tomozaki - S01E09.mkv (344.2 MiB)
    • Bottom-Tier Character Tomozaki - S01E10.mkv (358.1 MiB)
    • Bottom-Tier Character Tomozaki - S01E11.mkv (313.0 MiB)
    • Bottom-Tier Character Tomozaki - S01E12.mkv (287.1 MiB)
Can you add jobless reincarnation ova dub in your previous torrent as it's dub is out , also Kobayashi maid dragon S2 ova
The 12 + 2 episodes of this anime are now available in their entirety as a BD-Rip: https://nyaa.si/view/1575986 Will you revise this release or add said episodes (web rip) to it as a BD rip?

neoborn (uploader)

User
**@KnSnaru** Thought about it. Left out 2 freeleech oportunities to download the bdmv so far though. Ill keep an eye out for it and grab it the next time around. I need my saved up seedmoney for other things at the moment :-)
@neoborn Thanks for your feedback and for all your efforts so far. I've full understanding for your situation. I hope for many more encodings from you.