Girlfriend.Girlfriend.S01.1080p.BluRay.10-Bit.FLAC2.0.x265-YURASUKA (Kanojo mo Kanojo)

Category:
Date:
2022-08-13 04:48 UTC
Submitter:
Seeders:
12
Information:
Leechers:
1
File size:
7.4 GiB
Completed:
96
Info hash:
572c75c66f391fc6342a092c9fda0d9a0a95d6a9
Girlfriend, Girlfriend / Kanojo mo Kanojo Season 1 (2021) A/V + Subtitles Source: [TTGA BD Remux](https://nyaa.si/view/1558999) (JPBD/Setsugen) [Encode Comparison](https://slow.pics/c/FWkAp9fG) ``` Complete name : Girlfriend.Girlfriend.S01E12.1080p.BluRay.10-Bit.FLAC2.0.x265-YURASUKA.mkv Format : Matroska Format version : Version 4 File size : 714 MiB Duration : 24 min 12 s Overall bit rate mode : Variable Overall bit rate : 4 123 kb/s Movie name : Girlfriend, Girlfriend - S01E12 - YURASUKA Encoded date : UTC 2022-08-12 22:59:46 Writing application : mkvmerge v69.0.0 ('Day And Age') 64-bit Writing library : libebml v1.4.2 + libmatroska v1.6.3 Cover : Yes Attachments : cover.jpg / MyriadPro-Semibold.ttf / MyriadPro-SemiboldIt.otf / arial-rounded-mt.ttf / barmeno-bold.otf Video ID : 1 Format : HEVC Format/Info : High Efficiency Video Coding Format profile : Main 10@L5@Main Codec ID : V_MPEGH/ISO/HEVC Duration : 24 min 12 s Bit rate : 3 415 kb/s Width : 1 920 pixels Height : 1 080 pixels Display aspect ratio : 16:9 Frame rate mode : Constant Frame rate : 23.976 (24000/1001) FPS Color space : YUV Chroma subsampling : 4:2:0 Bit depth : 10 bits Bits/(Pixel*Frame) : 0.069 Stream size : 592 MiB (83%) Title : YURASUKA 1080p x265 Writing library : x265 3.5:[Linux][GCC 11.2.0][64 bit] 10bit Encoding settings : cpuid=1111039 / frame-threads=4 / numa-pools=24 / wpp / no-pmode / no-pme / no-psnr / no-ssim / log-level=2 / input-csp=1 / input-res=1920x1080 / interlace=0 / total-frames=0 / level-idc=0 / high-tier=1 / uhd-bd=0 / ref=6 / no-allow-non-conformance / no-repeat-headers / annexb / no-aud / no-hrd / info / hash=0 / no-temporal-layers / open-gop / min-keyint=1 / keyint=360 / gop-lookahead=0 / bframes=16 / b-adapt=2 / b-pyramid / bframe-bias=0 / rc-lookahead=72 / lookahead-slices=4 / scenecut=40 / hist-scenecut=0 / radl=0 / no-splice / no-intra-refresh / ctu=32 / min-cu-size=8 / rect / amp / max-tu-size=32 / tu-inter-depth=4 / tu-intra-depth=4 / limit-tu=0 / rdoq-level=2 / dynamic-rd=0.00 / no-ssim-rd / signhide / tskip / nr-intra=0 / nr-inter=0 / no-constrained-intra / strong-intra-smoothing / max-merge=3 / limit-refs=3 / limit-modes / me=3 / subme=4 / merange=57 / temporal-mvp / no-frame-dup / no-hme / weightp / weightb / no-analyze-src-pics / deblock=0:0 / no-sao / no-sao-non-deblock / rd=4 / selective-sao=0 / no-early-skip / rskip / no-fast-intra / no-tskip-fast / no-cu-lossless / b-intra / no-splitrd-skip / rdpenalty=0 / psy-rd=2.00 / psy-rdoq=2.00 / no-rd-refine / no-lossless / cbqpoffs=0 / crqpoffs=0 / rc=crf / crf=16.0 / qcomp=0.72 / qpstep=4 / stats-write=0 / stats-read=0 / ipratio=1.40 / pbratio=1.30 / aq-mode=3 / aq-strength=0.85 / cutree / zone-count=0 / no-strict-cbr / qg-size=32 / no-rc-grain / qpmax=69 / qpmin=0 / no-const-vbv / sar=0 / overscan=0 / videoformat=5 / range=0 / colorprim=1 / transfer=1 / colormatrix=1 / chromaloc=0 / display-window=0 / cll=0,0 / min-luma=0 / max-luma=1023 / log2-max-poc-lsb=8 / vui-timing-info / vui-hrd-info / slices=1 / no-opt-qp-pps / no-opt-ref-list-length-pps / no-multi-pass-opt-rps / scenecut-bias=0.05 / hist-threshold=0.03 / no-opt-cu-delta-qp / no-aq-motion / no-hdr10 / no-hdr10-opt / no-dhdr10-opt / no-idr-recovery-sei / analysis-reuse-level=0 / analysis-save-reuse-level=0 / analysis-load-reuse-level=0 / scale-factor=0 / refine-intra=0 / refine-inter=0 / refine-mv=1 / refine-ctu-distortion=0 / no-limit-sao / ctu-info=0 / no-lowpass-dct / refine-analysis-type=0 / copy-pic=1 / max-ausize-factor=1.0 / no-dynamic-refine / no-single-sei / no-hevc-aq / no-svt / no-field / qp-adaptation-range=1.00 / scenecut-aware-qp=0conformance-window-offsets / right=0 / bottom=0 / decoder-max-rate=0 / no-vbv-live-multi-pass Language : Japanese Default : Yes Forced : No Color range : Limited Color primaries : BT.709 Transfer characteristics : BT.709 Matrix coefficients : BT.709 Audio ID : 2 Format : FLAC Format/Info : Free Lossless Audio Codec Codec ID : A_FLAC Duration : 24 min 12 s Bit rate mode : Variable Bit rate : 704 kb/s Channel(s) : 2 channels Channel layout : L R Sampling rate : 48.0 kHz Frame rate : 10.417 FPS (4608 SPF) Bit depth : 16 bits Compression mode : Lossless Stream size : 122 MiB (17%) Title : Japanese FLAC 2.0 Writing library : Lavf59.16.100 Language : Japanese Default : Yes Forced : No Text ID : 3 Format : ASS Codec ID : S_TEXT/ASS Codec ID/Info : Advanced Sub Station Alpha Duration : 24 min 8 s Bit rate : 170 b/s Frame rate : 0.309 FPS Count of elements : 448 Compression mode : Lossless Stream size : 30.2 KiB (0%) Title : English Subtitles [Setsugen] Language : English Default : Yes Forced : No Menu 00:00:00.000 : en:Part A 00:12:13.024 : en:Part B ``` Dead end for a sucker that’s a sucker like me. 私のような吸盤の行き止まりです。

File list

  • Girlfriend.Girlfriend.S01.1080p.BluRay.10-Bit.FLAC2.0.x265-YURASUKA
    • Girlfriend.Girlfriend.S01E01.1080p.BluRay.10-Bit.FLAC2.0.x265-YURASUKA.mkv (705.5 MiB)
    • Girlfriend.Girlfriend.S01E02.1080p.BluRay.10-Bit.FLAC2.0.x265-YURASUKA.mkv (624.0 MiB)
    • Girlfriend.Girlfriend.S01E03.1080p.BluRay.10-Bit.FLAC2.0.x265-YURASUKA.mkv (594.8 MiB)
    • Girlfriend.Girlfriend.S01E04.1080p.BluRay.10-Bit.FLAC2.0.x265-YURASUKA.mkv (613.6 MiB)
    • Girlfriend.Girlfriend.S01E05.1080p.BluRay.10-Bit.FLAC2.0.x265-YURASUKA.mkv (635.8 MiB)
    • Girlfriend.Girlfriend.S01E06.1080p.BluRay.10-Bit.FLAC2.0.x265-YURASUKA.mkv (685.3 MiB)
    • Girlfriend.Girlfriend.S01E07.1080p.BluRay.10-Bit.FLAC2.0.x265-YURASUKA.mkv (572.5 MiB)
    • Girlfriend.Girlfriend.S01E08.1080p.BluRay.10-Bit.FLAC2.0.x265-YURASUKA.mkv (575.6 MiB)
    • Girlfriend.Girlfriend.S01E09.1080p.BluRay.10-Bit.FLAC2.0.x265-YURASUKA.mkv (648.1 MiB)
    • Girlfriend.Girlfriend.S01E10.1080p.BluRay.10-Bit.FLAC2.0.x265-YURASUKA.mkv (586.3 MiB)
    • Girlfriend.Girlfriend.S01E11.1080p.BluRay.10-Bit.FLAC2.0.x265-YURASUKA.mkv (611.9 MiB)
    • Girlfriend.Girlfriend.S01E12.1080p.BluRay.10-Bit.FLAC2.0.x265-YURASUKA.mkv (714.2 MiB)
Thanks, can you please consider doing Kemono Jihen - https://nyaa.si/view/1557752