[MagicStar] Ultraman Decker Special Episode 01 [WEBDL] [1080p] [YOUTUBE] [ENG_SUB]

Category:
Date:
2022-08-13 01:35 UTC
Submitter:
Seeders:
4
Information:
Leechers:
1
File size:
530.1 MiB
Completed:
158
Info hash:
3052cfdf246280353a737b3c66645331af767ca9
HD 1080p from Youtube official channel. English subtitles added. ![alt text](https://i.ibb.co/XsjZrJ4/e19b31d6-8e30-44b4-a090-6ae2fc8ef640b.jpg) ![alt text](https://i.ibb.co/fn8yBjR/Magic-Star-Ultraman-Decker-Special-Episode-01-WEBDL-1080p-YOUTUBE-mkv.jpg) ``` General Unique ID : 234623837857140489070273010533129356013 (0xB082E851E503B6BE2188006A201582ED) Complete name : [MagicStar] Ultraman Decker Special Episode 01 [WEBDL] [1080p] [YOUTUBE].mkv Format : Matroska Format version : Version 4 File size : 521 MiB Duration : 29 min 46 s Overall bit rate : 2 445 kb/s Encoded date : UTC 2022-08-13 01:31:45 Writing application : mkvmerge v50.0.0 ('Awakenings') 64-bit Writing library : libebml v1.4.0 + libmatroska v1.6.2 Cover : Yes Attachments : cover.png Video ID : 1 Format : AVC Format/Info : Advanced Video Codec Format profile : High@L4 Format settings : CABAC / 3 Ref Frames Format settings, CABAC : Yes Format settings, Reference fra : 3 frames Codec ID : V_MPEG4/ISO/AVC Duration : 29 min 46 s Bit rate : 2 310 kb/s Width : 1 920 pixels Height : 1 080 pixels Display aspect ratio : 16:9 Frame rate mode : Constant Frame rate : 23.976 (24000/1001) FPS Color space : YUV Chroma subsampling : 4:2:0 Bit depth : 8 bits Scan type : Progressive Bits/(Pixel*Frame) : 0.046 Stream size : 492 MiB (94%) Writing library : x264 core 155 r2901 7d0ff22 Default : Yes Forced : No Color range : Limited Color primaries : BT.709 Transfer characteristics : BT.709 Matrix coefficients : BT.709 Audio ID : 2 Format : AAC LC Format/Info : Advanced Audio Codec Low Complexity Codec ID : A_AAC-2 Duration : 29 min 46 s Bit rate : 128 kb/s Channel(s) : 2 channels Channel layout : L R Sampling rate : 44.1 kHz Frame rate : 43.066 FPS (1024 SPF) Compression mode : Lossy Stream size : 27.3 MiB (5%) Language : Japanese Default : Yes Forced : No ```

File list

Plz seed all episodes of [MagicStar] Rokuhoudou Yotsuiro Biyor drama