[Zoku] One Piece - Season 13 Voyage 4 (819-830) [1080p] [Funi WEB x H.264 8bit] [English Audio]

Category:
Date:
2022-08-11 02:41 UTC
Submitter:
Seeders:
2
Information:
No information.
Leechers:
1
File size:
12.8 GiB
Completed:
269
Info hash:
1a847d1ecbe001c7552cd126e3caa9c902f59687
720p Version: https://nyaa.si/view/1564509 Subtitles for episode 830 not working. Here's a link to a working .ass file for it: https://mega.nz/folder/UO1ykBgT#efIcy6a1XRsgdGrZ2wqUyA Video ID : 1 Format : AVC Format/Info : Advanced Video Codec Format profile : High@L4 Format settings : CABAC / 3 Ref Frames Format settings, CABAC : Yes Format settings, Reference frames : 3 frames Codec ID : V_MPEG4/ISO/AVC Duration : 24 min 8 s Bit rate : 5 984 kb/s Width : 1 920 pixels Height : 1 080 pixels Display aspect ratio : 16:9 Frame rate mode : Constant Frame rate : 23.976 (24000/1001) FPS Color space : YUV Chroma subsampling : 4:2:0 Bit depth : 8 bits Scan type : Progressive Bits/(Pixel*Frame) : 0.120 Stream size : 1.01 GiB (96%) Default : Yes Forced : No Color range : Limited Matrix coefficients : BT.709 Audio ID : 2 Format : AAC LC Format/Info : Advanced Audio Codec Low Complexity Codec ID : A_AAC-2 Duration : 24 min 9 s Bit rate : 256 kb/s Channel(s) : 2 channels Channel layout : L R Sampling rate : 48.0 kHz Frame rate : 46.875 FPS (1024 SPF) Compression mode : Lossy Stream size : 44.2 MiB (4%) Language : English Default : Yes Forced : No Text ID : 3 Format : ASS Codec ID : S_TEXT/ASS Codec ID/Info : Advanced Sub Station Alpha Duration : 23 min 35 s Bit rate : 127 b/s Frame rate : 0.234 FPS Count of elements : 331 Compression mode : Lossless Stream size : 22.1 KiB (0%) Language : English Default : Yes Forced : No

File list

  • [Zoku] One Piece - Season 13 Voyage 4 (819-830) [1080p] [English Audio]
    • .DS_Store (6.0 KiB)
    • One Piece - 819 - Sora`s Wish! Germa`s Failure Sanji!.mkv (1.1 GiB)
    • One Piece - 820 - To Reach Sanji! Luffy`s Vengeful Hell-bent Dash!.mkv (1.1 GiB)
    • One Piece - 821 - The Chateau in Turmoil! Luffy, to the Rendezvous!.mkv (1.1 GiB)
    • One Piece - 822 - Deciding to Say Goodbye! Sanji and His Straw-Hat Bento!.mkv (1.1 GiB)
    • One Piece - 823 - The Emperor Rolls Over! Rescue Brook Mission!.mkv (1.1 GiB)
    • One Piece - 824 - The Rendezvous! Luffy, a One-on-One at His Limit!.mkv (1.1 GiB)
    • One Piece - 825 - A Liar! Luffy and Sanji!.mkv (1.1 GiB)
    • One Piece - 826 - Sanji Comes Back! Crash! The Tea Party from Hell!.mkv (1.1 GiB)
    • One Piece - 827 - A Secret Meeting! Luffy vs. the Fire Tank Pirates!.mkv (1.0 GiB)
    • One Piece - 828 - The Deadly Pact! Luffy & Bege`s Allied Forces!.mkv (1.1 GiB)
    • One Piece - 829 - Luffy Engages in a Secret Maneuver! The Wedding Full of Conspiracies Starts Soon!.mkv (1.1 GiB)
    • One Piece - 830 - The Family Gets Together! The Hellish Tea Party Starts!.mkv (1.1 GiB)
will a 720p batch version be up soon?

Tom403 (uploader)

User
@kaiserstar1 Yea I'll have it up in a few hours.
Still hasn't shown up yet

Tom403 (uploader)

User
@kaiserstar1 Here it is.. sorry for the delay. https://nyaa.si/view/1564509