[neoHEVC] Iroduku: The World in Colors [Season 1] [BD 1080p x265 HEVC AAC AC3] [Dual Audio] Irozuku Sekai no Ashita kara

Category:
Date:
2022-08-06 13:31 UTC
Submitter:
Seeders:
10
Information:
Leechers:
3
File size:
3.5 GiB
Completed:
176
Info hash:
5090fe33e8fc869c9202ec611a2a6ad1fc5da552
![](https://i.imgur.com/RBlGp48.png) *Come hang out in **[Discord](https://discord.gg/47Q7FdB54e)*** #### **[Iroduku: The World in Colors [Season1]](https://myanimelist.net/anime/37497/Irozuku_Sekai_no_Ashita_kara)** ▶️ **[Trailer](https://www.youtube.com/watch?v=RnRYvCZy4vs)** --- **Synopsis** Despite the kaleidoscopic magic ingrained in everyday life, Hitomi Tsukishiro's monochrome world is deprived of emotion and feeling. On a night as black and white as any other, amidst the fireworks spreading across the sky, Hitomi's grandmother Kohaku conjures a spell, for which she has been harnessing the moon's light for 60 years, to send Hitomi back in time to the year 2018 when Kohaku was in high school. Hitomi's mission seems unclear, but her grandmother assures her that she will know when she gets there. Following a trip through time aboard a train driven by a strange yellow creature, Hitomi finds herself in stoic artist Yuito Aoi's room, and his drawings flood her world with color. What is Hitomi's purpose there, and why do Yuito's drawings return such breathtaking color to her drab world? ![](https://i.imgur.com/gZ5SipY.png) --- **Language Options** I included two simple scripts that you can apply to these files to do the following (Windows only): 1. Make [Single Audio] Japanese: Throws out *English audio* and *Signs&Songs subtitles* tracks 2. Make [Single Audio] English: Throws out *Japanese audio* and *Dialogue subtitles* tracks To apply these put all the video files into the *Language Options* folder and run the .bat file. *Don't combine them and only use them once together with the base files.* --- **Source** 🗃️ Video and JPN Audio (BDMV): **[dyt1993]** 🗃️ ENG Audio (BDMV): **[[EMBER]](https://nyaa.si/view/1561539)** 🗃️ Subtitles: **[[GJM]](https://nyaa.si/view/1082131)** 💬 *Subtitles Info: [GJM]* *Thank you all for making this possible <3* --- **Media Info** 🆔 [Full Mediainfo incl. Encoder Settings](https://pastebin.com/dC72HXBZ) ``` General Unique ID : 276974291988069187878316481752103145575 (0xD05F4EEB35E4375A82EF5FDA48D85067) Complete name : Iroduku - The World in Colors - S01E01.mkv Format : Matroska Format version : Version 4 File size : 313 MiB Duration : 24 min 8 s Overall bit rate : 1 811 kb/s Movie name : Iroduku - The World in Colors - S01E01 Encoded date : UTC 2022-08-05 18:50:40 Writing application : mkvmerge v57.0.0 ('Till The End') 64-bit Writing library : libebml v1.4.2 + libmatroska v1.6.4 Attachments : FELTREGULAR.TTF / FOTGAKUMARUGOTHICPROSTRP-B.OTF / FOTSEURATPRONSTRP-DEMIBOLD.OTF / FOTSEURATPRONSTRP-EXTRABOLD.OTF / GANDHISANS-BOLD.OTF / GANDHISANS-BOLDITALIC.OTF / IWAMINPROEN-BD.OTF / IWAMINPRO-MD-KAMI.TTF / IWATAMINCHOOLDPRO-TR-BOLD.TTF / KOZUKAGOTHICPR6NH.TTF / KOZUKAGOTHICPR6NR.TTF / THERIFLEMAN.TTF / WCRHESUSABTA.OTF / WCRHESUSBBTA.OTF / ALEX_BOLD.TTF / BARAMOND.TTF / BARAMONDBOLD.TTF / CHRISTOPHERHAND.TTF / CLEARFACEGOTHICBQ-REGULAR.TTF Video ID : 1 Format : HEVC Format/Info : High Efficiency Video Coding Format profile : Main 10@L4@High Codec ID : V_MPEGH/ISO/HEVC Duration : 24 min 7 s Bit rate : 1 313 kb/s Width : 1 920 pixels Height : 1 080 pixels Display aspect ratio : 16:9 Frame rate mode : Constant Frame rate : 23.976 (24000/1001) FPS Color space : YUV Chroma subsampling : 4:2:0 Bit depth : 10 bits Bits/(Pixel*Frame) : 0.026 Stream size : 227 MiB (72%) Writing library : x265 3.5+1-f0c1022b6:[Windows][GCC 9.2.0][64 bit] 10bit Encoding settings : <Check Link Above> Default : Yes Forced : No Color range : Limited Color primaries : BT.709 Transfer characteristics : BT.709 Matrix coefficients : BT.709 Audio #1 ID : 2 Format : AC-3 Format/Info : Audio Coding 3 Commercial name : Dolby Digital Codec ID : A_AC3 Duration : 24 min 8 s Bit rate mode : Constant Bit rate : 224 kb/s Channel(s) : 2 channels Channel layout : L R Sampling rate : 48.0 kHz Frame rate : 31.250 FPS (1536 SPF) Compression mode : Lossy Stream size : 38.7 MiB (12%) Title : English Language : English Service kind : Complete Main Default : Yes Forced : No Audio #2 ID : 3 Format : AAC LC Format/Info : Advanced Audio Codec Low Complexity Codec ID : A_AAC-2 Duration : 24 min 7 s Bit rate : 223 kb/s Channel(s) : 2 channels Channel layout : L R Sampling rate : 48.0 kHz Frame rate : 46.875 FPS (1024 SPF) Compression mode : Lossy Stream size : 38.4 MiB (12%) Title : Japanese Language : Japanese Default : No Forced : No Text #1 ID : 4 Format : ASS Codec ID : S_TEXT/ASS Codec ID/Info : Advanced Sub Station Alpha Duration : 23 min 9 s Bit rate : 3 157 b/s Count of elements : 3225 Compression mode : Lossless Stream size : 536 KiB (0%) Title : Signs & Songs Language : English Default : No Forced : Yes Text #2 ID : 5 Format : ASS Codec ID : S_TEXT/ASS Codec ID/Info : Advanced Sub Station Alpha Duration : 23 min 55 s Bit rate : 3 166 b/s Count of elements : 3570 Compression mode : Lossless Stream size : 555 KiB (0%) Title : Dialogue Language : English Default : Yes Forced : No Menu 00:00:00.000 : :Intro 00:00:49.299 : :Main Episode 00:22:21.966 : :ED 00:23:51.931 : :Preview ```

File list

  • [neoHEVC] Iroduku - The World in Colors [Season 1] [BD 1080p x265 HEVC AAC AC3] [Dual Audio]
    • Language Options
      • 1. Make [Single Audio] English.bat (254 Bytes)
      • 1. Make [Single Audio] Japanese.bat (254 Bytes)
      • mkvmerge.exe (9.6 MiB)
      • readme.txt (512 Bytes)
    • Iroduku - The World in Colors - S01E01.mkv (312.7 MiB)
    • Iroduku - The World in Colors - S01E02.mkv (225.9 MiB)
    • Iroduku - The World in Colors - S01E03.mkv (285.1 MiB)
    • Iroduku - The World in Colors - S01E04.mkv (225.1 MiB)
    • Iroduku - The World in Colors - S01E05.mkv (231.2 MiB)
    • Iroduku - The World in Colors - S01E06.mkv (375.6 MiB)
    • Iroduku - The World in Colors - S01E07.mkv (228.8 MiB)
    • Iroduku - The World in Colors - S01E08.mkv (278.4 MiB)
    • Iroduku - The World in Colors - S01E09.mkv (239.0 MiB)
    • Iroduku - The World in Colors - S01E10.mkv (299.4 MiB)
    • Iroduku - The World in Colors - S01E11.mkv (217.1 MiB)
    • Iroduku - The World in Colors - S01E12.mkv (280.5 MiB)
    • Iroduku - The World in Colors - S01E13.mkv (344.3 MiB)
This anime is really underated. Neo love your batches they are totally complete. Was wondering if you would do some old anime like Monster and ergo proxy. Cheers looking forward to your encode

neoborn (uploader)

User
**@frost_16** I have many old shows nicely tucked away in my library already so I don't really need new versions of those. I do these uploads for older things when they receive a new dub like some shows are getting from crunchy recently. Some of them I just mux into my [Single Audio] files I already have and leave it at that. Some I make my own version and then put it up here. But it all depends on whether I have a version of a given show already which with most older things I do. And if I don't then there are other versions out there that I just download like everybody else. I don't want to make a new version for everything just to have made one =) ![](https://i.imgur.com/EGiVmjl.png)