[MagicStar] Ultraman Decker EP05 [WEBDL] [1080p] [YOUTUBE] [ENG_CHS_SUB]

Category:
Date:
2022-08-06 07:36 UTC
Submitter:
Seeders:
18
Information:
Leechers:
2
File size:
493.8 MiB
Completed:
150
Info hash:
8f1983c82c0d30e2e8c6164407d077e4e2719142
HD 1080p from Youtube official channel. English and Chinese subtitles added. ![alt text](https://i.ibb.co/XsjZrJ4/e19b31d6-8e30-44b4-a090-6ae2fc8ef640b.jpg) ![alt text](https://i.ibb.co/WVLJR24/Magic-Star-Ultraman-Decker-EP05-WEBDL-1080p-YOUTUBE-mkv.jpg) ``` General Unique ID : 110569798078981675935955456769952118722 (0x532EF7F00B04A537A180A1373E58F7C2) Complete name : [MagicStar] Ultraman Decker EP05 [WEBDL] [1080p] [YOUTUBE].mkv Format : Matroska Format version : Version 4 File size : 484 MiB Duration : 29 min 46 s Overall bit rate mode : Variable Overall bit rate : 2 273 kb/s Encoded date : UTC 2022-08-06 07:12:32 Writing application : mkvmerge v50.0.0 ('Awakenings') 64-bit Writing library : libebml v1.4.0 + libmatroska v1.6.2 Video ID : 1 Format : AVC Format/Info : Advanced Video Codec Format profile : High@L4 Format settings : CABAC / 3 Ref Frames Format settings, CABAC : Yes Format settings, Reference fra : 3 frames Codec ID : V_MPEG4/ISO/AVC Duration : 29 min 46 s Bit rate mode : Variable Bit rate : 2 143 kb/s Maximum bit rate : 40.0 Mb/s Width : 1 920 pixels Height : 1 080 pixels Display aspect ratio : 16:9 Frame rate mode : Constant Frame rate : 23.976 (24000/1001) FPS Color space : YUV Chroma subsampling : 4:2:0 Bit depth : 8 bits Scan type : Progressive Bits/(Pixel*Frame) : 0.043 Stream size : 456 MiB (94%) Default : Yes Forced : No Color range : Limited Color primaries : BT.709 Transfer characteristics : BT.709 Matrix coefficients : BT.709 Audio ID : 2 Format : AAC LC Format/Info : Advanced Audio Codec Low Complexity Codec ID : A_AAC-2 Duration : 29 min 46 s Bit rate : 128 kb/s Channel(s) : 2 channels Channel layout : L R Sampling rate : 44.1 kHz Frame rate : 43.066 FPS (1024 SPF) Compression mode : Lossy Stream size : 27.3 MiB (6%) Language : Japanese Default : Yes Forced : No ```

File list

  • [MagicStar] Ultraman Decker EP05 [WEBDL] [1080p] [YOUTUBE] [ENG_CHS_SUB]
    • [MagicStar] Ultraman Decker EP05 [WEBDL] [1080p] [YOUTUBE].Chs.srt (17.8 KiB)
    • [MagicStar] Ultraman Decker EP05 [WEBDL] [1080p] [YOUTUBE].Jpn.srt (16.0 KiB)
    • [MagicStar] Ultraman Decker EP05 [WEBDL] [1080p] [YOUTUBE].mkv (484.1 MiB)
    • [MagicStar] Ultraman Decker Special Episode 01 Trailer [WEBDL] [1080p] [YOUTUBE].mkv (9.7 MiB)
There isn't a english subtitle there only Chinese and Japanese.

MagicStar-subs (uploader)

User
@UlraGod XD... Sorry, [MagicStar] Ultraman Decker EP05 [WEBDL] [1080p] [YOUTUBE].Jpn.srt is english subtitle, the wrong file name was written when renaming.