[MagicStar] Shiosuke to Amami -Soba ga Dekiru made Tantei- EP03 [WEBDL] [720p] [PARAVI]

Category:
Date:
2022-08-06 07:29 UTC
Submitter:
Seeders:
13
Information:
Leechers:
2
File size:
168.3 MiB
Completed:
358
Info hash:
aaeb402076b4491afec28323058c5b9df8815fca
HD 720p from Paravi. The original story of "Ishiko to Haneo -Sonna Koto de Uttaemasuļ¼Ÿ-". ![alt text](https://i.ibb.co/drTndpj/95957885731.jpg) ![alt text](https://i.ibb.co/WysMqFp/Shiosuke-to-Amami-Soba-ga-Dekiru-made-Tantei-EP03-720p-PARAVI-WEB-DL-AAC2-0-H-264-Magic-Star-mkv.jpg) ``` General Unique ID : 276935768288630833022597188236948237985 (0xD057E38DC390FD376ED91AA8968F6EA1) Complete name : Shiosuke.to.Amami.Soba.ga.Dekiru.made.Tantei.EP03.720p.PARAVI.WEB-DL.AAC2.0.H.264-MagicStar.mkv Format : Matroska Format version : Version 4 File size : 168 MiB Duration : 9 min 23 s Overall bit rate : 2 503 kb/s Encoded date : UTC 2022-08-06 07:23:53 Writing application : mkvmerge v50.0.0 ('Awakenings') 64-bit Writing library : libebml v1.4.0 + libmatroska v1.6.2 Cover : Yes Attachments : cover.png Video ID : 1 Format : AVC Format/Info : Advanced Video Codec Format profile : High@L3.1 Format settings : CABAC / 4 Ref Frames Format settings, CABAC : Yes Format settings, Reference fra : 4 frames Codec ID : V_MPEG4/ISO/AVC Duration : 9 min 23 s Bit rate : 2 362 kb/s Width : 1 280 pixels Height : 720 pixels Display aspect ratio : 16:9 Frame rate mode : Constant Frame rate : 29.970 (29970/1000) FPS Original frame rate : 29.970 (30000/1001) FPS Color space : YUV Chroma subsampling : 4:2:0 Bit depth : 8 bits Scan type : Progressive Bits/(Pixel*Frame) : 0.086 Stream size : 159 MiB (94%) Default : Yes Forced : No Color range : Limited Color primaries : BT.709 Transfer characteristics : BT.709 Matrix coefficients : BT.709 Audio ID : 2 Format : AAC LC Format/Info : Advanced Audio Codec Low Complexity Codec ID : A_AAC-2 Duration : 9 min 23 s Bit rate : 125 kb/s Channel(s) : 2 channels Channel layout : L R Sampling rate : 48.0 kHz Frame rate : 46.875 FPS (1024 SPF) Compression mode : Lossy Stream size : 8.43 MiB (5%) Language : Japanese Default : Yes Forced : No ```

File list