[neoHEVC] Teasing Master Takagi-san [Season 3] [BD 1080p x265 HEVC AAC] [Dual Audio] Karakai Jouzu no Takagi-san

Category:
Date:
2022-07-22 19:38 UTC
Submitter:
Seeders:
5
Information:
Leechers:
0
File size:
2.8 GiB
Completed:
482
Info hash:
7a224a49e1dbec097576c10a97927ba95b70ddf8
![](https://i.imgur.com/RBlGp48.png) *Join **[Discord](https://discord.gg/47Q7FdB54e)** for Current Projects and Seed-Request in case of no available seeds.* #### **Teasing Master Takagi-san / Karakai Jouzu no Takagi-san [Season 3]** Notes: . Trimmed English audio credit scene . Resampling Script for EP 5-12 . Restyling Script for EP 5-12 . Brought over OP from earlier Episodes into Ep 5-12 . Edited overlayed dialogue for EP 5-12 . Removed translated OP/ED credits in subs (sub source had NCOPED and put in translated credits in the subtitles which don't fit anymore in the BD version with its own credits showing) . Improved a couple signs for EP 5-12 . Created chapters for EP 5-12 ![](https://i.imgur.com/ZCtSawZ.png) **[MyAnimeList](https://myanimelist.net/anime/49721/Karakai_Jouzu_no_Takagi-san_3)** ![](https://i.imgur.com/3UxGuWB.png) ![](https://i.imgur.com/4iegWLL.png) **[Trailer](https://www.youtube.com/watch?v=jVzY7qRflNY)** --- **Synopsis** As summer break comes to an end, Nishikata is stoked to try out his newest pranks and finally outdo his classmate Takagi once and for all. Despite his losing streak, he is slowly getting to know the unrelenting workings of her crafty mind. However, he soon realizes that Takagi's motivations behind her teasing may not be what he initially assumed. One thing is certain, though: each fun-filled day of strategizing and competing brings the two closer than ever. ![](https://i.imgur.com/n2iKNMb.png) --- **Language Options** I included two simple scripts that you can apply to these files to do the following (Windows only): 1. Make [Single Audio] Japanese: Throws out *English audio* and *Signs&Songs subtitles* tracks 2. Make [Single Audio] English: Throws out *Japanese audio* and *Dialogue subtitles* tracks To apply these put all the video files into the *Language Options* folder and run the .bat file. *Don't combine them and only use them once together with the base files.* --- **Source** 🗃️ Video (BDMV): **[WiZee]** 🗃️ JPN Audio (BDMV): **[WiZee]** 🗃️ ENG Audio (WEB): **[[Yameii]](https://nyaa.si/view/1524966)** 🗃️ Subtitles: **[[NovaWorks]](https://nyaa.si/view/1477357)** **[[SubsPlease]](https://nyaa.si/view/1483808)** 💬 *Subtitles Info: [NovaWorks] EP 1-4 [SubsPlease, edited by me] EP 5-12* *Thank you all for making this possible <3* --- **Media Info** 🆔 [Full Mediainfo incl. Encoder Settings](https://pastebin.com/ZxAGVBv0) ``` General Unique ID : 262200259353144245137486597216854133067 (0xC541EEDF148094A20F9A89EF0EECC94B) Complete name : Teasing Master Takagi-san - S03E01.mkv Format : Matroska Format version : Version 4 File size : 298 MiB Duration : 24 min 23 s Overall bit rate : 1 710 kb/s Movie name : Teasing Master Takagi-san - S03E01 Encoded date : UTC 2022-05-06 22:57:52 Writing application : mkvmerge v57.0.0 ('Till The End') 64-bit Writing library : libebml v1.4.2 + libmatroska v1.6.4 Cover : Yes Attachments : CCSignLanguage-Regular.otf / Chawp.otf / DJB_Writes_a_Lot.ttf / Gandhisans-Bold.otf / Iwaminpro-Md-Kami.ttf / SFProDisplay-Regular.ttf / Top Secret.ttf / grain.ttf / Cracks.ttf / A-OTF-MoariaStd-Regular.otf / JurassicPark-BL48.ttf / sawarabi-mincho-medium.ttf / GandhiSans-Regular.otf / GandhiSans-Italic.otf / arial.ttf / GandhiSans-BoldItalic.otf / GandhiSans-Bold.otf / Mercurius-Medium.otf / FOT-SeuratProN-DB.otf / CoveredByYourGrace-Regular.ttf Video ID : 1 Format : HEVC Format/Info : High Efficiency Video Coding Format profile : Main 10@L4@High Codec ID : V_MPEGH/ISO/HEVC Duration : 23 min 38 s Bit rate : 1 363 kb/s Width : 1 920 pixels Height : 1 080 pixels Display aspect ratio : 16:9 Frame rate mode : Constant Frame rate : 23.976 (24000/1001) FPS Color space : YUV Chroma subsampling : 4:2:0 Bit depth : 10 bits Bits/(Pixel*Frame) : 0.027 Stream size : 231 MiB (77%) Writing library : x265 3.5+1-f0c1022b6:[Windows][GCC 9.2.0][64 bit] 10bit Encoding settings : <Check Link Above> Default : Yes Forced : No Color range : Limited Color primaries : BT.709 Transfer characteristics : BT.709 Matrix coefficients : BT.709 Audio #1 ID : 2 Format : AAC LC Format/Info : Advanced Audio Codec Low Complexity Codec ID : A_AAC-2 Duration : 24 min 23 s Bit rate : 159 kb/s Channel(s) : 2 channels Channel layout : L R Sampling rate : 48.0 kHz Frame rate : 46.875 FPS (1024 SPF) Compression mode : Lossy Delay relative to video : 21 ms Stream size : 27.8 MiB (9%) Title : English Language : English Default : Yes Forced : No Audio #2 ID : 3 Format : AAC LC Format/Info : Advanced Audio Codec Low Complexity Codec ID : A_AAC-2 Duration : 23 min 38 s Bit rate : 128 kb/s Channel(s) : 2 channels Channel layout : L R Sampling rate : 48.0 kHz Frame rate : 46.875 FPS (1024 SPF) Compression mode : Lossy Stream size : 21.6 MiB (7%) Title : Japanese Language : Japanese Default : No Forced : No Text #1 ID : 4 Format : ASS Codec ID : S_TEXT/ASS Codec ID/Info : Advanced Sub Station Alpha Duration : 23 min 26 s Bit rate : 7 596 b/s Count of elements : 6778 Compression mode : Lossless Stream size : 1.27 MiB (0%) Title : Signs & Songs Language : English Default : No Forced : Yes Text #2 ID : 5 Format : ASS Codec ID : S_TEXT/ASS Codec ID/Info : Advanced Sub Station Alpha Duration : 23 min 26 s Bit rate : 7 705 b/s Count of elements : 7107 Compression mode : Lossless Stream size : 1.29 MiB (0%) Title : Dialogue Language : English Default : Yes Forced : No Menu 00:00:00.000 : Intro 00:01:18.960 : OP 00:02:49.086 : :Episode 00:22:07.810 : ED ```

File list

  • [neoHEVC] Teasing Master Takagi-san [Season 3] [BD 1080p x265 HEVC AAC] [Dual Audio]
    • Language Options
      • 1. Make [Single Audio] English.bat (254 Bytes)
      • 1. Make [Single Audio] Japanese.bat (254 Bytes)
      • mkvmerge.exe (9.6 MiB)
      • readme.txt (512 Bytes)
    • Teasing Master Takagi-san - S03E01.mkv (292.6 MiB)
    • Teasing Master Takagi-san - S03E02.mkv (275.6 MiB)
    • Teasing Master Takagi-san - S03E03.mkv (271.0 MiB)
    • Teasing Master Takagi-san - S03E04.mkv (207.9 MiB)
    • Teasing Master Takagi-san - S03E05.mkv (231.8 MiB)
    • Teasing Master Takagi-san - S03E06.mkv (186.6 MiB)
    • Teasing Master Takagi-san - S03E07.mkv (227.3 MiB)
    • Teasing Master Takagi-san - S03E08.mkv (249.6 MiB)
    • Teasing Master Takagi-san - S03E09.mkv (291.7 MiB)
    • Teasing Master Takagi-san - S03E10.mkv (191.3 MiB)
    • Teasing Master Takagi-san - S03E11.mkv (181.1 MiB)
    • Teasing Master Takagi-san - S03E12.mkv (289.9 MiB)
wow, another one! Thank you

neoborn (uploader)

User
![](https://i.imgur.com/8yOkw5d.png) Old shows... gotta get these out the door to make space for new things :D But now they start bringing out dubs for even older stuff like Jahy and Natsumes Book of Friends. Gotta catch them all!
What about seasons 1 and 2? And will you also do the movie?

neoborn (uploader)

User
**@Nyaako** No plans for these. I got them from somewhere else already. With newer seasons where I got in late I usually have the prior stuff from somewhere else already and only make the new stuff myself.