[neoHEVC] Ranking of Kings [Season 1] [BD 1080p x265 HEVC AAC] [Dual Audio] Ousama Ranking

Category:
Date:
2022-07-22 19:16 UTC
Submitter:
Seeders:
17
Information:
Leechers:
0
File size:
7.0 GiB
Completed:
1336
Info hash:
cda9b7919f7b1a8054e2521452aab6849b55d4f7
![](https://i.imgur.com/RBlGp48.png) *Join **[Discord](https://discord.gg/47Q7FdB54e)** for Current Projects and Seed-Request in case of no available seeds.* #### **Ranking of Kings / Ousama Ranking [Season 1]** ![](https://i.imgur.com/4iegWLL.png) **[Trailer](https://www.youtube.com/watch?v=Tr1ahorojPg)** ![](https://i.imgur.com/3UxGuWB.png) ![](https://i.imgur.com/ZCtSawZ.png) **[MyAnimeList](https://myanimelist.net/anime/40834/Ousama_Ranking)** --- **Synopsis** The people of the kingdom look down on the young Prince Bojji, who can neither hear nor speak. They call him "The Useless Prince" while jeering at his supposed foolishness. However, while Bojji may not be physically strong, he is certainly not weak of heart. When a chance encounter with a shadow creature should have left him traumatized, it instead makes him believe that he has found a friend amidst those who only choose to notice his shortcomings. He starts meeting with Kage, the shadow, regularly, to the point where even the otherwise abrasive creature begins to warm up to him. Kage and Bojji's unlikely friendship lays the budding foundations of the prince's journey, one where he intends to conquer his fears and insecurities. Despite the constant ridicule he faces, Bojji resolves to fulfill his desire of becoming the best king he can be. ![](https://i.imgur.com/k2Gn2PG.png) --- **Language Options** I included two simple scripts that you can apply to these files to do the following (Windows only): 1. Make [Single Audio] Japanese: Throws out *English audio* and *Signs&Songs subtitles* tracks 2. Make [Single Audio] English: Throws out *Japanese audio* and *Dialogue subtitles* tracks To apply these put all the video files into the *Language Options* folder and run the .bat file. *Don't combine them and only use them once together with the base files.* --- **Source** 🗃️ Video (BDMV): **[KAKAROT]** 🗃️ JPN Audio (BDMV): **[KAKAROT]** 🗃️ ENG Audio (WEB): **[[NanDesuKa]](https://nyaa.si/view/1457570)** 🗃️ Subtitles: **[[King]](https://nyaa.si/view/1448882)** 💬 *Subtitles Info: [King]* *Thank you all for making this possible <3* --- **Media Info** 🆔 [Full Mediainfo incl. Encoder Settings](https://pastebin.com/h48ZvYqt) ``` General Unique ID : 148424710869505878846176977713561842656 (0x6FA98F3C6103E5D2C2BAA79F4C3BB3E0) Complete name : Ranking of Kings - S01E01.mkv Format : Matroska Format version : Version 4 File size : 320 MiB Duration : 22 min 51 s Overall bit rate : 1 956 kb/s Movie name : Ranking of Kings - S01E01 Writing application : Lavf58.47.100 Writing library : Lavf58.47.100 ErrorDetectionType : Per level 1 Attachments : ARRBD_ECL.ttf / FlareGothicBOLD.ttf / HeiseiMaruGoStd-W8.otf / impresja.ttf / Mamelon-4-Hi-Regular.otf / Noteworthy.ttc Video ID : 1 Format : HEVC Format/Info : High Efficiency Video Coding Format profile : Main 10@L4@High Codec ID : V_MPEGH/ISO/HEVC Duration : 22 min 51 s Bit rate : 1 633 kb/s Width : 1 920 pixels Height : 1 080 pixels Display aspect ratio : 16:9 Frame rate mode : Variable Frame rate : 23.976 FPS Color space : YUV Chroma subsampling : 4:2:0 Bit depth : 10 bits Bits/(Pixel*Frame) : 0.033 Stream size : 267 MiB (83%) Writing library : x265 3.5+1-f0c1022b6:[Windows][GCC 9.2.0][64 bit] 10bit Encoding settings : <Check Link Above> Default : Yes Forced : No Color range : Limited Color primaries : BT.709 Transfer characteristics : BT.709 Matrix coefficients : BT.709 Audio #1 ID : 2 Format : AAC LC Format/Info : Advanced Audio Codec Low Complexity Codec ID : A_AAC-2 Duration : 22 min 50 s Channel(s) : 2 channels Channel layout : L R Sampling rate : 48.0 kHz Frame rate : 46.875 FPS (1024 SPF) Compression mode : Lossy Title : English Writing library : Lavc58.93.100 aac Language : English Default : Yes Forced : No Audio #2 ID : 3 Format : AAC LC Format/Info : Advanced Audio Codec Low Complexity Codec ID : A_AAC-2 Duration : 22 min 51 s Bit rate : 126 kb/s Channel(s) : 2 channels Channel layout : L R Sampling rate : 48.0 kHz Frame rate : 46.875 FPS (1024 SPF) Compression mode : Lossy Delay relative to video : 21 ms Stream size : 20.6 MiB (6%) Title : Japanese Language : Japanese Default : No Forced : No Text #1 ID : 4 Format : ASS Codec ID : S_TEXT/ASS Codec ID/Info : Advanced Sub Station Alpha Duration : 22 min 49 s Bit rate : 108 b/s Count of elements : 150 Compression mode : Lossless Stream size : 17.4 KiB (0%) Title : Signs & Songs Writing library : Lavc58.93.100 ssa Language : English Default : No Forced : Yes Text #2 ID : 5 Format : ASS Codec ID : S_TEXT/ASS Codec ID/Info : Advanced Sub Station Alpha Duration : 22 min 49 s Bit rate : 187 b/s Count of elements : 389 Compression mode : Lossless Stream size : 31.2 KiB (0%) Title : Dialogue Writing library : Lavc58.93.100 ssa Language : English Default : Yes Forced : No Menu 00:00:00.000 : :Prologue 00:01:02.959 : :OP 00:02:32.882 : :Episode 00:21:20.884 : :ED ```

File list

  • [neoHEVC] Ranking of Kings [Season 1] [BD 1080p x265 HEVC AAC] [Dual Audio]
    • Language Options
      • 1. Make [Single Audio] English.bat (254 Bytes)
      • 1. Make [Single Audio] Japanese.bat (254 Bytes)
      • mkvmerge.exe (9.6 MiB)
      • readme.txt (512 Bytes)
    • Ranking of Kings - S01E01.mkv (319.9 MiB)
    • Ranking of Kings - S01E02.mkv (286.1 MiB)
    • Ranking of Kings - S01E03.mkv (286.4 MiB)
    • Ranking of Kings - S01E04.mkv (285.0 MiB)
    • Ranking of Kings - S01E05.mkv (259.9 MiB)
    • Ranking of Kings - S01E06.mkv (264.4 MiB)
    • Ranking of Kings - S01E07.mkv (295.7 MiB)
    • Ranking of Kings - S01E08.mkv (269.5 MiB)
    • Ranking of Kings - S01E09.mkv (323.1 MiB)
    • Ranking of Kings - S01E10.mkv (274.8 MiB)
    • Ranking of Kings - S01E11.mkv (261.7 MiB)
    • Ranking of Kings - S01E12.mkv (351.3 MiB)
    • Ranking of Kings - S01E13.mkv (391.6 MiB)
    • Ranking of Kings - S01E14.mkv (323.9 MiB)
    • Ranking of Kings - S01E15.mkv (280.9 MiB)
    • Ranking of Kings - S01E16.mkv (301.0 MiB)
    • Ranking of Kings - S01E17.mkv (328.4 MiB)
    • Ranking of Kings - S01E18.mkv (332.5 MiB)
    • Ranking of Kings - S01E19.mkv (343.4 MiB)
    • Ranking of Kings - S01E20.mkv (311.4 MiB)
    • Ranking of Kings - S01E21.mkv (371.4 MiB)
    • Ranking of Kings - S01E22.mkv (299.2 MiB)
    • Ranking of Kings - S01E23.mkv (347.5 MiB)
Your title signs are broken.