[neoHEVC] Ascendance of a Bookworm [Season 3 + Specials] [BD 1080p x265 HEVC AAC] [Dual Audio] Honzuki no Gekokujou: Shisho ni Naru Tame ni wa Shudan wo Erandeiraremasen

Category:
Date:
2022-07-19 17:29 UTC
Submitter:
Seeders:
7
Information:
Leechers:
1
File size:
3.4 GiB
Completed:
603
Info hash:
2d524813965b80a7e52862251eaf2454e6b1084e
![](https://i.imgur.com/RBlGp48.png) *Join **[Discord](https://discord.gg/47Q7FdB54e)** for Current Projects and Seed-Request in case of no available seeds.* #### **Ascendance of a Bookworm / Honzuki no Gekokujou: Shisho ni Naru Tame ni wa Shudan wo Erandeiraremasen [Season 3 + Specials]** Notes: . Specials are [Single Audio] ![](https://i.imgur.com/ZCtSawZ.png) **[MyAnimeList: Season 3](https://myanimelist.net/anime/42429/Honzuki_no_Gekokujou__Shisho_ni_Naru_Tame_ni_wa_Shudan_wo_Erandeiraremasen_3rd_Season)** ![](https://i.imgur.com/3UxGuWB.png) ![](https://i.imgur.com/ZCtSawZ.png) **[MyAnimeList: Specials](https://myanimelist.net/anime/51616/Honzuki_no_Gekokujou__Shisho_ni_Naru_Tame_ni_wa_Shudan_wo_Erandeiraremasen_Recap)** ![](https://i.imgur.com/3UxGuWB.png) ![](https://i.imgur.com/4iegWLL.png) **[Trailer](https://www.youtube.com/watch?v=7gpL3E5ezH4)** --- **Related Uploads:** 1️⃣ [Season 2 + OVA](https://nyaa.si/view/1283158) --- **Synopsis** Winter is approaching, and Myne—now an apprentice priestess—must prepare for her stay at the church and the upcoming Dedication Ceremony. However, due to her immense knowledge and extraordinary amount of mana, she has garnered the attention of many dangerous people, who are willing to do anything to get their hands on Myne. To keep her safe, the Head Priest assigns Myne a bodyguard and advises her to be adopted by a noble, a decision that will force her to leave her family behind. As Myne is opposed to the idea, the Head Priest gives her an ultimatum: she can be with her family until she turns 10, but if she is deemed too unstable, she will immediately be dealt with. Placed in a tough position, Myne is uncertain about her future. Despite the twists that may lie ahead, she will do whatever she can to protect those that she loves—even if it means giving up on her dream. ![](https://i.imgur.com/yBN16w1.png) --- **Language Options** I included two simple scripts that you can apply to these files to do the following (Windows only): 1. Make [Single Audio] Japanese: Throws out *English audio* and *Signs&Songs subtitles* tracks 2. Make [Single Audio] English: Throws out *Japanese audio* and *Dialogue subtitles* tracks To apply these put all the video files into the *Language Options* folder and run the .bat file. *Don't combine them and only use them once together with the base files.* --- **Source** 🗃️ Video (BDMV): **[[Lia]](https://nyaa.si/view/1552622)** 🗃️ JPN Audio (BDMV): **[[Lia]](https://nyaa.si/view/1552622)** 🗃️ ENG Audio (WEB): **[[Yameii]](https://nyaa.si/view/1529393)** 🗃️ Subtitles: **[[GJM]](https://nyaa.si/view/1515980)** 💬 *Subtitles Info: [GJM]* *Thank you all for making this possible <3* --- **Media Info** 🆔 [Full Mediainfo incl. Encoder Settings](https://pastebin.com/MZfpkneN) ``` General Unique ID : 86445915592643818692105004617218704641 (0x4108E0B3A21670BA85567EBF15A8C501) Complete name : Ascendance of a Bookworm - S03E01.mkv Format : Matroska Format version : Version 4 File size : 265 MiB Duration : 23 min 42 s Overall bit rate : 1 565 kb/s Movie name : Ascendance of a Bookworm - S03E01 Writing application : Lavf58.47.100 Writing library : Lavf58.47.100 ErrorDetectionType : Per level 1 Attachments : GandhiSans-Bold.otf / GandhiSans-BoldItalic.otf / AVER.TTF / AZUKI.TTF / CARTOON FREE.ttf / FOT-TsukuAOldMin_Pr6.otf / MARKERSCRIBBLES.OTF / SF_Cartoonist_Hand.ttf / UDReiminPro-Heavy-Stripped.otf / MADE Sunflower PERSONAL USE.otf / IntelOneDisplayBold.ttf / IntelOneDisplayMedium.ttf / IntelOneDisplayRegular.ttf / Lato-Regular.ttf / OLDSH.TTF Video ID : 1 Format : HEVC Format/Info : High Efficiency Video Coding Format profile : Main 10@L4@High Codec ID : V_MPEGH/ISO/HEVC Duration : 23 min 42 s Bit rate : 1 093 kb/s Width : 1 920 pixels Height : 1 080 pixels Display aspect ratio : 16:9 Frame rate mode : Variable Frame rate : 23.976 FPS Color space : YUV Chroma subsampling : 4:2:0 Bit depth : 10 bits Bits/(Pixel*Frame) : 0.022 Stream size : 185 MiB (70%) Writing library : x265 3.5+1-f0c1022b6:[Windows][GCC 9.2.0][64 bit] 10bit Encoding settings : <Check Link Above> Default : Yes Forced : No Color range : Limited Color primaries : BT.709 Transfer characteristics : BT.709 Matrix coefficients : BT.709 Audio #1 ID : 2 Format : AAC LC Format/Info : Advanced Audio Codec Low Complexity Codec ID : A_AAC-2 Duration : 23 min 41 s Channel(s) : 2 channels Channel layout : L R Sampling rate : 44.1 kHz Frame rate : 43.066 FPS (1024 SPF) Compression mode : Lossy Title : English Writing library : Lavc58.93.100 aac Language : English Default : Yes Forced : No Audio #2 ID : 3 Format : AAC LC Format/Info : Advanced Audio Codec Low Complexity Codec ID : A_AAC-2 Duration : 23 min 42 s Bit rate : 197 kb/s Channel(s) : 2 channels Channel layout : L R Sampling rate : 48.0 kHz Frame rate : 46.875 FPS (1024 SPF) Compression mode : Lossy Delay relative to video : 23 ms Stream size : 33.4 MiB (13%) Title : Japanese Language : Japanese Default : No Forced : No Text #1 ID : 4 Format : ASS Codec ID : S_TEXT/ASS Codec ID/Info : Advanced Sub Station Alpha Duration : 23 min 41 s Bit rate : 35.3 kb/s Count of elements : 7106 Compression mode : Lossless Stream size : 5.98 MiB (2%) Title : Signs & Songs Writing library : Lavc58.93.100 ssa Language : English Default : No Forced : Yes Text #2 ID : 5 Format : ASS Codec ID : S_TEXT/ASS Codec ID/Info : Advanced Sub Station Alpha Duration : 23 min 41 s Bit rate : 35.5 kb/s Count of elements : 7455 Compression mode : Lossless Stream size : 6.01 MiB (2%) Title : Dialogue Writing library : Lavc58.93.100 ssa Language : English Default : Yes Forced : No Menu 00:00:00.000 : :OP 00:01:30.980 : :Part A 00:12:32.980 : :Part B 00:22:56.930 : :Preview ```

File list

  • [neoHEVC] Ascendance of a Bookworm [Season 3 + Specials] [BD 1080p x265 HEVC AAC] [Dual Audio]
    • Language Options
      • 1. Make [Single Audio] English.bat (254 Bytes)
      • 1. Make [Single Audio] Japanese.bat (254 Bytes)
      • mkvmerge.exe (9.6 MiB)
      • readme.txt (512 Bytes)
    • Specials
      • Ascendance of a Bookworm - S00E03 - (S3S1 Recap 1).mkv (246.0 MiB)
      • Ascendance of a Bookworm - S00E04 - (S3S2 Recap 2).mkv (300.9 MiB)
    • Ascendance of a Bookworm - S03E01.mkv (265.4 MiB)
    • Ascendance of a Bookworm - S03E02.mkv (283.6 MiB)
    • Ascendance of a Bookworm - S03E03.mkv (290.0 MiB)
    • Ascendance of a Bookworm - S03E04.mkv (378.7 MiB)
    • Ascendance of a Bookworm - S03E05.mkv (287.9 MiB)
    • Ascendance of a Bookworm - S03E06.mkv (264.3 MiB)
    • Ascendance of a Bookworm - S03E07.mkv (264.1 MiB)
    • Ascendance of a Bookworm - S03E08.mkv (285.3 MiB)
    • Ascendance of a Bookworm - S03E09.mkv (295.3 MiB)
    • Ascendance of a Bookworm - S03E10.mkv (294.7 MiB)
what a cute picture! nice release, perfect for tomorrow thanks
A huge thank you

neoborn (uploader)

User
![](https://i.imgur.com/4U9UQGe.png)
you should add another saten-san to the banner each time you upload something