[MiraiAnime] Hyouka (2012) [Season 1 + OVA + EXTRA] [BD 1080p x265 HEVC OPUS] [Dual-Audio]

Category:
Date:
2022-07-18 19:20 UTC
Submitter:
Seeders:
50
Information:
Leechers:
3
File size:
8.7 GiB
Completed:
2788
Info hash:
a74966ec290dcd756b1fac60378a0f383df51aa5
|![](https://i.imgur.com/H9OflL8.jpg)| | :-: | | [**Hyouka - MyAnimeList.net**](https://myanimelist.net/anime/12189/Hyouka) | ___ #### **Information:** Re-release: OVA does now include subtitles, the rest stayed the same. Sorry for the trouble. Changes to Coalgirls's subtitles: I made the font a little bit smaller. OVA: Removed weird preview at the beginning (eng-audio), since the BDMV didn't include that. The video was encoded with crf 19.5 to 10bit, and the audio to OPUS. ___ ##### For requests, questions or ddl, join my (small) discord here: **https://discord.gg/8n7H3ArdCW** ##### I highly suggest you to use [mpv](https://mpv.io/) for playback. ___ **Summary:** * added english audio * created sign&songs track * slightly edited subtitle styling * created awfully looking banner.jpg * audio was encoded to OPUS (libopus, 128k) * video was encoded to HEVC (libx265, crf 19.5, yuv420p10le) * naming scheme matches [TheTVDB.com](https://thetvdb.com/series/hyouka) (for plex/radarr/emby/jellyfin/kodi compatibility) |Track-Type | Title | Attributes | |:-------------:|:-------------:|:-----:| |video|Japanese|x265 HEVC 10bit 23.976FPS 1920x1080| |audio|Japanese|48.0kHz stereo OPUS| |audio|English|48.0kHz stereo OPUS (**default**)| |audio|Japanese Commentary|48.0kHz OPUS| |subtitles|English|ass| |subtitles|Sign&Songs|ass (**default**)| |chapters| ##### **Disclaimer: NC's is single-audio (jpn) with Sign&Songs** ___ #### **Source:** [**BDMV**](https://nyaa.si/view/1138569 "BDMV's release") - video, jpn audio (+commentary) [**Coalgirls**](https://nyaa.si/view/432395 "Coalgirls's release") - subtitles, chapters [**UDF**](https://nyaa.si/view/1370608 "UDF's releases") - english audio ___ #### **Screenshots:** |Screenshot 1|Screenshot 2|Screenshot 3|Screenshot 4| |:-:|:-:|:-:|:-:| |[![](https://i.imgur.com/DVlMuqd.png)](https://i.ibb.co/sj4YnYj/Screenshot-1.png)|[![](https://i.imgur.com/Stj9Kxl.png)](https://i.ibb.co/8DDcy2S/Screenshot-2.png)|[![](https://i.imgur.com/qwnbPUU.png)](https://i.ibb.co/N3Ms2bK/Screenshot-3.png)|[![](https://i.imgur.com/o3ERqMT.png)](https://i.ibb.co/n8VxH1N/Screenshot-4.png)| ___ #### **FFprobe:** ``` ffprobe version 5.0.1 Copyright (c) 2007-2022 the FFmpeg developers configuration: ... libavutil 57. 17.100 / 57. 17.100 libavcodec 59. 18.100 / 59. 18.100 libavformat 59. 16.100 / 59. 16.100 libavdevice 59. 4.100 / 59. 4.100 libavfilter 8. 24.100 / 8. 24.100 libswscale 6. 4.100 / 6. 4.100 libswresample 4. 3.100 / 4. 3.100 libpostproc 56. 3.100 / 56. 3.100 Input #0, matroska,webm, from 'Hyouka (2012) - S01E01 - The Revival of the Long-established Classic Literature Club.mkv': Metadata: creation_time : 2022-07-17T15:03:09.000000Z ENCODER : Lavf59.16.100 Duration: 00:27:13.15, start: -0.007000, bitrate: 2114 kb/s Chapters: Chapter #0:0: start 0.000000, end 263.012000 Metadata: title : Intro Chapter #0:1: start 263.012000, end 353.019000 Metadata: title : Opening Chapter #0:2: start 353.019000, end 888.095000 Metadata: title : Part A Chapter #0:3: start 888.095000, end 1535.075000 Metadata: title : Part B Chapter #0:4: start 1535.075000, end 1624.080000 Metadata: title : Ending Chapter #0:5: start 1624.080000, end 1633.135000 Metadata: title : Preview Stream #0:0(jpn): Video: hevc (Main 10), yuv420p10le(tv), 1920x1080 [SAR 1:1 DAR 16:9], 23.98 fps, 23.98 tbr, 1k tbn Metadata: title : [BDMV] Japanese ENCODER : Lavc59.18.100 libx265 BPS : 1675485 DURATION : 00:27:13.146000000 NUMBER_OF_FRAMES: 39156 NUMBER_OF_BYTES : 342039145 _STATISTICS_WRITING_APP: mkvmerge v69.0.0 ('Day And Age') 64-bit _STATISTICS_WRITING_DATE_UTC: 2022-07-17 15:03:09 _STATISTICS_TAGS: BPS DURATION NUMBER_OF_FRAMES NUMBER_OF_BYTES Stream #0:1(jpn): Audio: opus, 48000 Hz, stereo, fltp Metadata: title : [BDMV] Japanese ENCODER : Lavc59.18.100 libopus BPS : 124551 DURATION : 00:27:13.143000000 NUMBER_OF_FRAMES: 81658 NUMBER_OF_BYTES : 25426212 _STATISTICS_WRITING_APP: mkvmerge v69.0.0 ('Day And Age') 64-bit _STATISTICS_WRITING_DATE_UTC: 2022-07-17 15:03:09 _STATISTICS_TAGS: BPS DURATION NUMBER_OF_FRAMES NUMBER_OF_BYTES Stream #0:2(eng): Audio: opus, 48000 Hz, stereo, fltp (default) Metadata: title : [UDF] English ENCODER : Lavc59.18.100 libopus BPS : 127799 DURATION : 00:27:12.096000000 NUMBER_OF_FRAMES: 81605 NUMBER_OF_BYTES : 26072543 _STATISTICS_WRITING_APP: mkvmerge v69.0.0 ('Day And Age') 64-bit _STATISTICS_WRITING_DATE_UTC: 2022-07-17 15:03:09 _STATISTICS_TAGS: BPS DURATION NUMBER_OF_FRAMES NUMBER_OF_BYTES Stream #0:3(jpn): Audio: opus, 48000 Hz, stereo, fltp Metadata: title : [BDMV] Japanese Commentary ENCODER : Lavc59.18.100 libopus BPS : 124294 DURATION : 00:27:13.142000000 NUMBER_OF_FRAMES: 81658 NUMBER_OF_BYTES : 25373845 _STATISTICS_WRITING_APP: mkvmerge v69.0.0 ('Day And Age') 64-bit _STATISTICS_WRITING_DATE_UTC: 2022-07-17 15:03:09 _STATISTICS_TAGS: BPS DURATION NUMBER_OF_FRAMES NUMBER_OF_BYTES Stream #0:4(eng): Subtitle: ass Metadata: title : [Coalgirls] Dialogue BPS : 686 DURATION : 00:27:03.700000000 NUMBER_OF_FRAMES: 1286 NUMBER_OF_BYTES : 139286 _STATISTICS_WRITING_APP: mkvmerge v69.0.0 ('Day And Age') 64-bit _STATISTICS_WRITING_DATE_UTC: 2022-07-17 15:03:09 _STATISTICS_TAGS: BPS DURATION NUMBER_OF_FRAMES NUMBER_OF_BYTES Stream #0:5(eng): Subtitle: ass (default) Metadata: title : [Coalgirls] Sign&Songs BPS : 584 DURATION : 00:25:20.100000000 NUMBER_OF_FRAMES: 812 NUMBER_OF_BYTES : 111063 _STATISTICS_WRITING_APP: mkvmerge v69.0.0 ('Day And Age') 64-bit _STATISTICS_WRITING_DATE_UTC: 2022-07-17 15:03:09 _STATISTICS_TAGS: BPS DURATION NUMBER_OF_FRAMES NUMBER_OF_BYTES + 20 Fonts ``` ___ #### **I've included two scripts. You can either deactivate the english-audio and subtitles, or completely remove them. [How-To](https://pastebin.pl/view/raw/abc6003f)** *** #### **Many thanks to [BDMV](https://nyaa.si/user/ted423), [Coalgirls](https://nyaa.si/user/Coalgirls) and [verymuchwanteddubfan/UDF](https://nyaa.si/user/unwanteddubfan) for all the amazing work!** ___ If you find anything that seems out of the ordinary, just post a comment or in my discord and I'll take a look at it.

File list

  • Hyouka (2012) [Season 1+OVA] [BD 1080p HEVC OPUS] [Dual-Audio]
    • EXTRA
      • Hyouka (2012) - OPED1 - Yasashisa no Riyuu, Madoromi no Yakusoku.mkv (87.9 MiB)
      • Hyouka (2012) - OPED2 - Mikansei Stride, Kimi ni Matsuwaru Mystery.mkv (139.6 MiB)
    • Season 1
      • Hyouka (2012) - S01E01 - The Revival of the Long-established Classic Literature Club.mkv (411.8 MiB)
      • Hyouka (2012) - S01E02 - The Activities of the Esteemed Classics Club.mkv (347.9 MiB)
      • Hyouka (2012) - S01E03 - The Descendants of the Classic Literature Club with its Circumstances.mkv (325.0 MiB)
      • Hyouka (2012) - S01E04 - The Old Days of the Glorious Classic Literature Club.mkv (431.5 MiB)
      • Hyouka (2012) - S01E05 - The Truth of the Classics Club and Its Past.mkv (379.1 MiB)
      • Hyouka (2012) - S01E06 - To Commit a Grave Sin.mkv (292.5 MiB)
      • Hyouka (2012) - S01E07 - True Colors.mkv (334.3 MiB)
      • Hyouka (2012) - S01E08 - Let's Go to the Screening.mkv (414.9 MiB)
      • Hyouka (2012) - S01E09 - The Furuoka Deserted Village Murder Case.mkv (355.9 MiB)
      • Hyouka (2012) - S01E10 - What No One Noticed.mkv (337.6 MiB)
      • Hyouka (2012) - S01E11 - Closing Credits of the Fool.mkv (334.4 MiB)
      • Hyouka (2012) - S01E12 - Practically Piled to the Ceiling.mkv (423.6 MiB)
      • Hyouka (2012) - S01E13 - A Corpse by Evening.mkv (387.7 MiB)
      • Hyouka (2012) - S01E14 - Wild Fire.mkv (435.4 MiB)
      • Hyouka (2012) - S01E15 - The Juumonji Case.mkv (362.0 MiB)
      • Hyouka (2012) - S01E16 - The Last Target.mkv (355.8 MiB)
      • Hyouka (2012) - S01E17 - The Kudryavka Sequence.mkv (374.4 MiB)
      • Hyouka (2012) - S01E18 - Does the Sun Shine on the Peaks.mkv (389.6 MiB)
      • Hyouka (2012) - S01E19 - Those Whom It May Concern.mkv (436.4 MiB)
      • Hyouka (2012) - S01E20 - Sappy New Year.mkv (386.9 MiB)
      • Hyouka (2012) - S01E21 - The Case of the Handmade Chocolate.mkv (457.0 MiB)
      • Hyouka (2012) - S01E22 - The Doll That Took a Detour.mkv (393.5 MiB)
    • Specials
      • Hyouka (2012) - S00E01 - What Everyone Needs (Episode 11.5).mkv (328.8 MiB)
    • Remove-Dub.bat (5.3 KiB)
    • Remove-Dub.sh (5.5 KiB)
    • Switch-to-Sub.bat (6.3 KiB)
    • Switch-to-Sub.sh (6.4 KiB)
the white balance is off on your banner

ThatWaxEllo (uploader)

User
**@govna** Not just the white balance. It's also lacking Effort and Creativity. In all seriousness though: now that I see it on my main monitor, it's an actual eye sore.