[Zoku] One Piece - Season 13 Voyage 3 (807-818) [ENGL UNCUT] [Funi WEB x H.264 1080p 8bit AAC]

Category:
Date:
2022-07-10 03:55 UTC
Submitter:
Seeders:
2
Information:
No information.
Leechers:
0
File size:
12.8 GiB
Completed:
305
Info hash:
3c4f0f259feef96398d4955caec72d00eaf76631
This is just a Funimation web-rip with the english dub and subs. The OP credits were hardsubbed so couldn't do much about that. Hope you enjoy. 720p Batch: https://nyaa.si/view/1552296 (Changed tag from [Kaizoku]...someone brought to my attention it was taken) Video ID : 1 Format : AVC Format/Info : Advanced Video Codec Format profile : High@L4 Format settings : CABAC / 3 Ref Frames Format settings, CABAC : Yes Format settings, Reference frames : 3 frames Codec ID : V_MPEG4/ISO/AVC Duration : 24 min 8 s Bit rate : 6 055 kb/s Width : 1 920 pixels Height : 1 080 pixels Display aspect ratio : 16:9 Frame rate mode : Constant Frame rate : 23.976 (24000/1001) FPS Color space : YUV Chroma subsampling : 4:2:0 Bit depth : 8 bits Scan type : Progressive Bits/(Pixel*Frame) : 0.122 Stream size : 1.02 GiB (96%) Default : Yes Forced : No Color range : Limited Matrix coefficients : BT.709 Audio ID : 2 Format : AAC LC Format/Info : Advanced Audio Codec Low Complexity Codec ID : A_AAC-2 Duration : 24 min 9 s Bit rate : 256 kb/s Channel(s) : 2 channels Channel layout : L R Sampling rate : 48.0 kHz Frame rate : 46.875 FPS (1024 SPF) Compression mode : Lossy Stream size : 44.2 MiB (4%) Language: English Default : Yes Forced : No Text ID : 3 Format : UTF-8 Codec ID : S_TEXT/UTF8 Codec ID/Info : UTF-8 Plain Text Duration : 23 min 30 s Bit rate : 42 b/s Frame rate : 0.160 FPS Count of elements : 225 Stream size : 7.38 KiB (0%) Language : English

File list

  • [KaiZoku] One Piece - Season 13 Voyage 3 (807-818) [ENGL UNCUT]
    • One Piece - 807 - A Heartbreaking Duel! Luffy vs Sanji! - Part 1.mkv (1.1 GiB)
    • One Piece - 808 - A Heartbreaking Duel! Luffy vs Sanji! - Part 2.mkv (1.1 GiB)
    • One Piece - 809 - A Storm of Revenge! An Enraged Army Comes to Attack!.mkv (1.1 GiB)
    • One Piece - 810 - The End of the Adventure! Sanji`s Resolute Proposal!.mkv (1.1 GiB)
    • One Piece - 811 - I`ll Wait Here! Luffy vs. the Enraged Army!.mkv (1.1 GiB)
    • One Piece - 812 - Invading the Chateau! Reach the Road Ponegliff!.mkv (1.1 GiB)
    • One Piece - 813 - A Fateful Confrontation! Luffy and Big Mom!.mkv (1.1 GiB)
    • One Piece - 814 - Shout of the Soul! Brook and Pedro`s Lightning Operation!.mkv (1.1 GiB)
    • One Piece - 815 - Goodbye! Pudding`s Tearful Determination!.mkv (1.0 GiB)
    • One Piece - 816 - The History of the Left Eye! Pedro vs. Baron Tamago!.mkv (1.1 GiB)
    • One Piece - 817 - Moist Cigarette! The Night Before Sanji`s Wedding!.mkv (1.1 GiB)
    • One Piece - 818 - The Undaunted Soul! Brook vs. Big Mom!.mkv (1.1 GiB)
Thanks for the effort man! Appreciate you <3

Tom403 (uploader)

User
No problem!
Awesome! Thank you.
well, considering the previous uploader said that they were done, I am glad somone like you could able to upload these monthly releases.

Tom403 (uploader)

User
@kaiserstar1 Yea, that's really the only reason I'm doing them.
well, you think you could have a 720p version of this batch and the rest of future releases instead for the scale?
Is it true that another batch comes out tomorrow? 819+ Thanks.

Tom403 (uploader)

User
@kaiserstar1 I'll try. I'm just a one man operation though so if time permits I'll do it. @thermalz I believe the next batch comes out on the 12th, but that might be for digital purchase. I have to wait for the streaming release which is usually 3 weeks after.
Is it really only 3 weeks later I thought it was like a month or longer even?

Tom403 (uploader)

User
Yea, lately it's been around 3 weeks. They're starting to really get them out quickly now.
Hii @Tom403.One Piece Eng Dub 819-830 coming today at 4pm ET.Will you please release those?

Tom403 (uploader)

User
@pankaj135 Yea I just saw them. I thought they were coming out later this month so it's a welcomed surprise. I should have it up by tonight.
How come these are uncut, are all the other voyages cut?
@Tom403 can u please upload Season 13 V1&2 Episodes 783 - 806 1080p

Tom403 (uploader)

User
@Iloveboobs84 Sorry I hadn't checked the comments on this one for a while, but yeah I can do that for you. *nice name btw