[MagicStar] Pandora no Kajitsu Kagaku Hanzai Sousa File EP10 END [WEBDL] [1080p] [HULU] [JPN_SUB]

Category:
Date:
2022-06-26 13:20 UTC
Submitter:
Seeders:
7
Information:
Leechers:
1
File size:
1.3 GiB
Completed:
885
Info hash:
0a99bf553fbd1eab943a57bce02bcaa4330de66c
HD 1080p from HULU JAPAN. ![alt text](https://i.ibb.co/FBQvV3Z/8d5c9675-01a4-44e4-8cb8-e1b0783d953fb.jpg) ![alt text](https://i.ibb.co/f0xDX3Q/Pandora-no-Kajitsu-Kagaku-Hanzai-Sousa-File-EP10-1080p-HULU-WEB-DL-AAC2-0-H-264-Magic-Star-mkv.jpg) ``` General Unique ID : 139041689552153345921697912810340545076 (0x689A7491564E1CE5BDD43B18CDEEF234) Complete name : Pandora.no.Kajitsu.Kagaku.Hanzai.Sousa.File.EP10.1080p.HULU.WEB-DL.AAC2.0.H.264-MagicStar.mkv Format : Matroska Format version : Version 4 File size : 1.28 GiB Duration : 45 min 8 s Overall bit rate : 4 047 kb/s Encoded date : UTC 2022-06-25 15:44:00 Writing application : mkvmerge v50.0.0 ('Awakenings') 64-bit Writing library : libebml v1.4.0 + libmatroska v1.6.2 Cover : Yes Attachments : cover.png Video ID : 1 Format : AVC Format/Info : Advanced Video Codec Format profile : High@L4 Format settings : CABAC / 4 Ref Frames Format settings, CABAC : Yes Format settings, Reference fra : 4 frames Codec ID : V_MPEG4/ISO/AVC Duration : 45 min 8 s Bit rate : 3 919 kb/s Width : 1 920 pixels Height : 1 080 pixels Display aspect ratio : 16:9 Frame rate mode : Constant Frame rate : 23.976 (24000/1001) FPS Color space : YUV Chroma subsampling : 4:2:0 Bit depth : 8 bits Scan type : Progressive Bits/(Pixel*Frame) : 0.079 Stream size : 1.24 GiB (97%) Default : Yes Forced : No Color range : Limited Color primaries : BT.709 Transfer characteristics : BT.709 Matrix coefficients : BT.709 Audio ID : 2 Format : AAC LC Format/Info : Advanced Audio Codec Low Complexity Codec ID : A_AAC-2 Duration : 45 min 8 s Bit rate : 125 kb/s Channel(s) : 2 channels Channel layout : L R Sampling rate : 48.0 kHz Frame rate : 46.875 FPS (1024 SPF) Compression mode : Lossy Stream size : 40.5 MiB (3%) Language : Japanese Default : Yes Forced : No ```

File list

Thank you, so much and best regards. It will be pleasure from now on.