[neoHEVC] Banished From The Hero's Party, I Decided To Live A Quiet Life In The Countryside [Season 1] [BD 1080p x265 HEVC AAC] [Dual Audio] Shin no Nakama ja Nai to Yuusha no Party wo Oidasareta node, Henkyou de Slow Life suru Koto ni Shimashita

Category:
Date:
2022-06-20 17:59 UTC
Submitter:
Seeders:
19
Information:
Leechers:
2
File size:
4.2 GiB
Completed:
1371
Info hash:
de41b76ccda28e4cd447fe7ed8dfb06d956d4096
![](https://i.imgur.com/RBlGp48.png) *Join **[Discord](https://discord.gg/47Q7FdB54e)** for Current Projects and Seed-Request in case of no available seeds.* #### **Banished From The Hero's Party, I Decided To Live A Quiet Life In The Countryside** #### **Shin no Nakama ja Nai to Yuusha no Party wo Oidasareta node, Henkyou de Slow Life suru Koto ni Shimashita** #### **[Season 1]** Notes: . EP 1-7 are [Cyan] . Styled EP 8-13 after EP 1-7 . Inserted OPED into EP 8-13 . Created typesetting for signs for EP 8-13 . Created chapters for EP 8-13 ![](https://i.imgur.com/ZCtSawZ.png) **[MyAnimeList](https://myanimelist.net/anime/44037/Shin_no_Nakama_ja_Nai_to_Yuusha_no_Party_wo_Oidasareta_node_Henkyou_de_Slow_Life_suru_Koto_ni_Shimashita)** ![](https://i.imgur.com/3UxGuWB.png) ![](https://i.imgur.com/4iegWLL.png) **[Trailer](https://www.youtube.com/watch?v=62bFd4bZoic)** --- **Patches** Fix for a missing dialogue line, a missing sign and a missing font. **ATTENTION** This anime has a very long name. Depending on how deep you are with the folder structure the patch/mux wont work because of Windows path restrictions. Move everything closer to a root folder like C:/temp and try again **[Patch + Files to Mux](https://drive.google.com/file/d/1BOxnSFKtarcM137mYXz2S8w5MRg7N-29/view?usp=sharing)** --- **Synopsis** Far away from the reaches of demons and war, near the borderland of Zoltan, D-Rank adventurer Red lives a normal existence. Through perseverance and hard work, his dream of starting his own apothecary and peaceful life in the countryside finally came true. Abruptly, Red gets a live-in partner and assistant named Rit—the princess of Duchy Loggervia and an adventurer herself—who gives everything up to join him. Although honest, kind, and loved by all, Red has a secret shared only with Rit: his real name is Gideon, brother of Ruti Ragnason, the "Hero" and a former member of her party. Ares Drowa, the "Sage," kicked Red out of their party after their war against the Demon Lord after deciding he was weak and insignificant. Now, even though Red has left the Hero's party behind by assuming a new life together with Rit, his past has yet to let go of him. ![](https://i.imgur.com/hX3UlMJ.gif) --- **Language Options** I included two simple scripts that you can apply to these files to do the following (Windows only): 1. Make [Single Audio] Japanese: Throws out *English audio* and *Signs&Songs subtitles* tracks 2. Make [Single Audio] English: Throws out *Japanese audio* and *Dialogue subtitles* tracks To apply these put all the video files into the *Language Options* folder and run the .bat file. *Don't combine them and only use them once together with the base files.* --- **Source** 🗃️ Video (BDMV): **[[Lupin the Nerd]](https://nyaa.si/view/1543333)** 🗃️ JPN Audio (BDMV): **[[Lupin the Nerd]](https://nyaa.si/view/1543333)** 🗃️ ENG Audio (WEB): **[[Golumpa]](https://nyaa.si/view/1448644)** 🗃️ Subtitles: **[[Cyan]](https://nyaa.si/view/1461829)** **[[Erai-raws]](https://nyaa.si/view/1459784)** 💬 *Subtitles Info: [Cyan] EP 1-7 [Me, based on Erai-raws] EP 8-13, see notes* *Thank you all for making this possible <3* --- **Media Info** 🆔 [Full Mediainfo incl. Encoder Settings](https://pastebin.com/SfVpcNab) ``` General Unique ID : 31172833875716534294685193800423206256 (0x1773AB5F3128F9804ADBA6DFB71E6D70) Complete name : Banished From The Hero's Party, I Decided To Live A Quiet Life In The Countryside - S01E01.mkv Format : Matroska Format version : Version 4 File size : 313 MiB Duration : 23 min 42 s Overall bit rate : 1 848 kb/s Movie name : Banished From The Hero's Party, I Decided To Live A Quiet Life In The Countryside - S01E01 Writing application : Lavf58.47.100 Writing library : Lavf58.47.100 ErrorDetectionType : Per level 1 Attachments : Chiaki Bold Italic.ttf / Chiaki Bold.ttf / DaxlinePro-Black.otf / MAIAN.TTF / Simple Kind Of Girl.ttf / AireExterior.ttf Video ID : 1 Format : HEVC Format/Info : High Efficiency Video Coding Format profile : Main 10@L4@High Codec ID : V_MPEGH/ISO/HEVC Duration : 23 min 42 s Bit rate : 1 438 kb/s Width : 1 920 pixels Height : 1 080 pixels Display aspect ratio : 16:9 Frame rate mode : Variable Frame rate : 23.976 FPS Color space : YUV Chroma subsampling : 4:2:0 Bit depth : 10 bits Bits/(Pixel*Frame) : 0.029 Stream size : 244 MiB (78%) Writing library : x265 3.5+1-f0c1022b6:[Windows][GCC 9.2.0][64 bit] 10bit Encoding settings : <Check Link Above> Default : Yes Forced : No Color range : Limited Color primaries : BT.709 Transfer characteristics : BT.709 Matrix coefficients : BT.709 Audio #1 ID : 2 Format : AAC LC Format/Info : Advanced Audio Codec Low Complexity Codec ID : A_AAC-2 Duration : 23 min 41 s Channel(s) : 2 channels Channel layout : L R Sampling rate : 48.0 kHz Frame rate : 46.875 FPS (1024 SPF) Compression mode : Lossy Title : English Writing library : Lavc58.93.100 aac Language : English Default : Yes Forced : No Audio #2 ID : 3 Format : AAC LC Format/Info : Advanced Audio Codec Low Complexity Codec ID : A_AAC-2 Duration : 23 min 42 s Bit rate : 245 kb/s Channel(s) : 2 channels Channel layout : L R Sampling rate : 48.0 kHz Frame rate : 46.875 FPS (1024 SPF) Compression mode : Lossy Delay relative to video : 21 ms Stream size : 41.5 MiB (13%) Title : Japanese Language : Japanese Default : No Forced : No Text #1 ID : 4 Format : ASS Codec ID : S_TEXT/ASS Codec ID/Info : Advanced Sub Station Alpha Duration : 23 min 34 s Bit rate : 1 743 b/s Count of elements : 1617 Compression mode : Lossless Stream size : 293 KiB (0%) Title : Signs & Songs Writing library : Lavc58.93.100 ssa Language : English Default : No Forced : Yes Text #2 ID : 5 Format : ASS Codec ID : S_TEXT/ASS Codec ID/Info : Advanced Sub Station Alpha Duration : 23 min 34 s Bit rate : 1 828 b/s Count of elements : 1978 Compression mode : Lossless Stream size : 314 KiB (0%) Title : Dialogue Writing library : Lavc58.93.100 ssa Language : English Default : Yes Forced : No Menu 00:00:00.000 : :Intro 00:00:39.020 : :OP 00:02:08.980 : :Episode 00:22:11.020 : :ED ```

File list

  • [neoHEVC] Banished From The Hero's Party, I Decided To Live A Quiet Life In The Countryside [Season 1] [BD 1080p x265 HEVC AAC] [Dual Audio]
    • Language Options
      • 1. Make [Single Audio] English.bat (254 Bytes)
      • 1. Make [Single Audio] Japanese.bat (254 Bytes)
      • mkvmerge.exe (9.6 MiB)
      • readme.txt (512 Bytes)
    • Banished From The Hero's Party, I Decided To Live A Quiet Life In The Countryside - S01E01.mkv (313.2 MiB)
    • Banished From The Hero's Party, I Decided To Live A Quiet Life In The Countryside - S01E02.mkv (441.3 MiB)
    • Banished From The Hero's Party, I Decided To Live A Quiet Life In The Countryside - S01E03.mkv (266.2 MiB)
    • Banished From The Hero's Party, I Decided To Live A Quiet Life In The Countryside - S01E04.mkv (268.2 MiB)
    • Banished From The Hero's Party, I Decided To Live A Quiet Life In The Countryside - S01E05.mkv (492.6 MiB)
    • Banished From The Hero's Party, I Decided To Live A Quiet Life In The Countryside - S01E06.mkv (337.1 MiB)
    • Banished From The Hero's Party, I Decided To Live A Quiet Life In The Countryside - S01E07.mkv (337.1 MiB)
    • Banished From The Hero's Party, I Decided To Live A Quiet Life In The Countryside - S01E08.mkv (281.1 MiB)
    • Banished From The Hero's Party, I Decided To Live A Quiet Life In The Countryside - S01E09.mkv (309.2 MiB)
    • Banished From The Hero's Party, I Decided To Live A Quiet Life In The Countryside - S01E10.mkv (329.4 MiB)
    • Banished From The Hero's Party, I Decided To Live A Quiet Life In The Countryside - S01E11.mkv (310.7 MiB)
    • Banished From The Hero's Party, I Decided To Live A Quiet Life In The Countryside - S01E12.mkv (352.2 MiB)
    • Banished From The Hero's Party, I Decided To Live A Quiet Life In The Countryside - S01E13.mkv (262.6 MiB)

neoborn (uploader)

User
![](https://i.imgur.com/EGiVmjl.png) Very long name on this one. In case the scripts don't work, it's probably because of Windows path length restrictions. Put the files closer to a root folder (ex. C:\temp) and try again.
Thanks, and the advice of putting them in C: worked perfect, when I tried to use them from D it was a nope. Really love the ability to use those.
Any plan to make 86 part 2? **@neoborn**

neoborn (uploader)

User
**@Xonline** Yes. Still some subtitles missing at the moment.

len

User
I love Saten-san. I also love this upload. Thanks.

neoborn (uploader)

User
![](https://i.imgur.com/NM6EQGf.png)
**@neoborn** Some error I found, you may want to make patches on this. Ep2 - Subtitle missing at 0:05:00.98 Ep5 - Sign missing at 0:09:16.88 Ep6 - Sign missing font and one more that I forgot to note :D

neoborn (uploader)

User
**@Xonline** Thanks for reporting. Unfortunately these have been part of the source subs already. I've inserted the missing dialogue line, added the font and even got that sign translated by a friend just for you (it wasn't translated in erai/subsplease guess that is why [Cyan] missed it)! Check patches in description and mind the **ATTENTION** section Cheers
**@neoborn** Nice!, and to note, yes, I know it is part of the source subs, because I download and checked the original subs and it is the same. Ep2 and Ep6 are easy fix for sure (already have the line in the sub itself) but I'm just too lazy to translate shiz :P